Browse Collections Artists Sources   Search Dates

Add Show    List Management    Help


Grateful Dead 08/31/83
Silva Hall, Hult Center, Eugene, OR
Comments Add Comment    Source Collectors    Add to Collection    Add to Want List    History
Source # 141489 Other Sources
Entered by Matt Vernon
Checksums flac-md5 , ffp
Disc Counts 0 / 0
Media Size
Date Circulated
Date Added
03/26/2018
03/26/2018
Source Summary flac24; Source Info: Otto Rice's Master (FOB) Audience Cassettes; Sennheiser 421 mics > Sony D5; Transfer Info: Master Cassettes (Nakamichi BX-300)> Apogee Mini Me 24/96 > Apogee Mini DAC > Adobe Audition 3.0 (24/96)> TLH flac2496 
  Archive
Source Information - Download Text | Download Zip
Grateful Dead
Silva Hall
Hult Center for the Performing Arts
Eugene, OR
Wednesday August 31, 1983

Source Info:
Otto Rice's Master (FOB) Audience Cassettes; Sennheiser 421 mics > Sony D5

Transfer Info:
Master Cassettes (Nakamichi BX-300)> Apogee Mini Me 24/96 > Apogee Mini DAC > Adobe Audition 3.0 (24/96)> TLH flac2496

Notes:
- Thanks to Otto Rice for the master cassette source
- Thanks to Matt Smith for the transfer
- Thanks to Charlie Miller for coordinating this effort
- Thanks to Ernie Dodd and Bill Tetzeli for the shnid84934 Sennheiser 421 source which supplies the last 5:38 of "West LA Fadeaway", "Hell In A Bucket" in its entirety, as well as the the first 2:14 of "Althea"
- Thanks to daweez and d5scott for the shnid111598 Sennheiser 4221 source which supplies a 0:18 patch in "Drums > Space", as well as the crowd and first few notes of "Satisfaction" (0:08 total)
- Beginning of "Alabama Getaway" is muffled
- Transitions smoothed

Mastered by Scott Clugston
March 24, 2018

Set One:
s1 t01 - Alabama Getaway >
s1 t02 - Greatest Story Ever Told
s1 t03 - Dupree's Diamond Blues
s1 t04 - Me & My Uncle >
s1 t05 - Mexicali Blues
s1 t06 - West LA Fadeaway
s1 t07 - Hell In A Bucket
s1 t08 - Althea
s1 t09 - Cassidy >
s1 t10 - Don't Ease Me In

Set Two:
s2 t01 - Cold Rain & Snow
s2 t02 - Playin' In The Band >
s2 t03 - China Doll >
         Jam >
s2 t04 - Drums >
s2 t05 - Space >
         Jam >
s2 t06 - Truckin' >
s2 t07 - Stella Blue >
s2 t08 - Around & Around >
s2 t09 - Good Lovin'
Encore:
s2 t10 - US Blues
s2 t11 - Satisfaction



    length     expanded size    cdr  WAVE problems  fmt   ratio  filename
     5:40.840     196323884 B   cxx   --   ---xx   flac  0.7076  gd83-08-31 s1 t01 Alabama Getaway.flac
     4:03.853     140459564 B   cxx   --   ---xx   flac  0.7056  gd83-08-31 s1 t02 Greatest Story Ever Told.flac
     7:14.680     250375724 B   cxx   --   ---xx   flac  0.7158  gd83-08-31 s1 t03 Dupree's Diamond Blues.flac
     3:00.733     104102444 B   cxx   --   ---xx   flac  0.7256  gd83-08-31 s1 t04 Me & My Uncle.flac
     5:14.187     180971564 B   cxx   --   ---xx   flac  0.7250  gd83-08-31 s1 t05 Mexicali Blues.flac
     9:13.467     318796844 B   cxx   --   ---xx   flac  0.6507  gd83-08-31 s1 t06 West LA Fadeaway.flac
     5:22.613     185825324 B   cxx   --   ---xx   flac  0.6329  gd83-08-31 s1 t07 Hell In A Bucket.flac
     9:48.107     338749484 B   cxx   --   ---xx   flac  0.6935  gd83-08-31 s1 t08 Althea.flac
     6:17.827     217628204 B   cxx   --   ---xx   flac  0.7290  gd83-08-31 s1 t09 Cassidy.flac
     3:17.062     113507660 B   cxx   --   ---xx   flac  0.7344  gd83-08-31 s1 t10 Don't Ease Me In.flac
     7:06.933     245913644 B   cxx   --   ---xx   flac  0.7218  gd83-08-31 s2 t01 Cold Rain & Snow.flac
    10:47.933     373209644 B   cxx   --   ---xx   flac  0.7210  gd83-08-31 s2 t02 Playin' In The Band.flac
    10:41.013     369223724 B   cxx   --   ---xx   flac  0.7165  gd83-08-31 s2 t03 China Doll.flac
     6:47.520     234731564 B   cxx   --   ---xx   flac  0.6957  gd83-08-31 s2 t04 Drums.flac
     6:04.653     210040364 B   cxx   --   ---xx   flac  0.6866  gd83-08-31 s2 t05 Space.flac
    10:02.733     347174444 B   cxx   --   ---xx   flac  0.7209  gd83-08-31 s2 t06 Truckin'.flac
     9:32.320     329656364 B   cxx   --   ---xx   flac  0.7117  gd83-08-31 s2 t07 Stella Blue.flac
     3:54.533     135091244 B   cxx   --   ---xx   flac  0.7261  gd83-08-31 s2 t08 Around & Around.flac
     9:54.653     342520364 B   cxx   --   ---xx   flac  0.7230  gd83-08-31 s2 t09 Good Lovin'.flac
     5:36.813     194004524 B   cxx   --   ---xx   flac  0.7265  gd83-08-31 s2 t10 US Blues.flac
     7:19.142     252945548 B   cxx   --   ---xx   flac  0.7237  gd83-08-31 s2 t11 Satisfaction.flac
   147:01.617    5081252124 B                            0.7083  (21 files)


Show Checksums
flac-md5
d00d618f51eeed6ec378ff5ff10f994d *gd83-08-31 s1 t01 Alabama Getaway.flac
684f9d516c199c9d1b5538142a164a01 *gd83-08-31 s1 t02 Greatest Story Ever Told.flac
0a351624d67489b6df3cf858739b2d4e *gd83-08-31 s1 t03 Dupree's Diamond Blues.flac
2383fd4533f9fc907047512cd06cb93f *gd83-08-31 s1 t04 Me & My Uncle.flac
ea8c70f6e9b1664100736949ff0aeb6b *gd83-08-31 s1 t05 Mexicali Blues.flac
6ddd6e3a24d262589adf289f54e75792 *gd83-08-31 s1 t06 West LA Fadeaway.flac
c4c4fc4d4e5128a6627f15b632c0e679 *gd83-08-31 s1 t07 Hell In A Bucket.flac
ffd89e031d119c9d74e8c9ee1eab2a00 *gd83-08-31 s1 t08 Althea.flac
ba992eaf6dc0945b25a21ff75e0b1ec4 *gd83-08-31 s1 t09 Cassidy.flac
20b1d693edb0878e885ca484d83d17ed *gd83-08-31 s1 t10 Don't Ease Me In.flac
0d9ae5a487b145d07d330fa11b3c7dce *gd83-08-31 s2 t01 Cold Rain & Snow.flac
0cb84d59b8ebeb4fa42c06ac852897ce *gd83-08-31 s2 t02 Playin' In The Band.flac
b9cf36bb8e927b100f7f94868a816807 *gd83-08-31 s2 t03 China Doll.flac
5c35f5796c4e849c0b24fb2ccedf6585 *gd83-08-31 s2 t04 Drums.flac
63cabfd5d7e0535769234a413bff90da *gd83-08-31 s2 t05 Space.flac
63cc293b3b20258a6e4e26e362d128ba *gd83-08-31 s2 t06 Truckin'.flac
449ebfd9899415d3517440d36c42af52 *gd83-08-31 s2 t07 Stella Blue.flac
61684599b9a648c5386f55c7fa3087cd *gd83-08-31 s2 t08 Around & Around.flac
7147b536c5d8d9116afa1c8c2af33ee5 *gd83-08-31 s2 t09 Good Lovin'.flac
064b713384f7c1b06694ea28c63609d5 *gd83-08-31 s2 t10 US Blues.flac
f2aae3a1e8048a19104f808fff802890 *gd83-08-31 s2 t11 Satisfaction.flac
ffp
gd83-08-31 s1 t01 Alabama Getaway.flac:829f929cf5ed3db3142f60653e356316
gd83-08-31 s1 t02 Greatest Story Ever Told.flac:3f066109b41fe4946b6d7b316b201d3a
gd83-08-31 s1 t03 Dupree's Diamond Blues.flac:32444ec5baaa89e13fde3b8acdeb5d14
gd83-08-31 s1 t04 Me & My Uncle.flac:af3c7a07f5529379f2c756d1d463b6d4
gd83-08-31 s1 t05 Mexicali Blues.flac:9aac750077d1430f62b5d5279dac0120
gd83-08-31 s1 t06 West LA Fadeaway.flac:f3dfd8c6078224dbc07fc5e835b83ba6
gd83-08-31 s1 t07 Hell In A Bucket.flac:8d2836b75d0ca7ef9a3dd2ed3277e794
gd83-08-31 s1 t08 Althea.flac:2398b4efbb2da79f9c57fa93af6ff9fb
gd83-08-31 s1 t09 Cassidy.flac:ef41376dc43ab656dd452a04e900cbee
gd83-08-31 s1 t10 Don't Ease Me In.flac:c11dd95a6de23b1854ed6c4f83d295e1
gd83-08-31 s2 t01 Cold Rain & Snow.flac:a52520f9d384c2026891c116c604c554
gd83-08-31 s2 t02 Playin' In The Band.flac:18b026f0c68d5f7f4eb5caf281f03151
gd83-08-31 s2 t03 China Doll.flac:fe99c4ed86a5fd8d3896a8484a21d5ff
gd83-08-31 s2 t04 Drums.flac:ca65d5ef0ef8a622bade8aff4b1844c6
gd83-08-31 s2 t05 Space.flac:51f2dba06fd6e58e191e2a6dda95318b
gd83-08-31 s2 t06 Truckin'.flac:9a632ae6967069aa28924cc88ca29b4d
gd83-08-31 s2 t07 Stella Blue.flac:2dbee3184ae41143274d692ce2935ee8
gd83-08-31 s2 t08 Around & Around.flac:960892a0b452a7acd4dbcc5d791388c4
gd83-08-31 s2 t09 Good Lovin'.flac:b0f59e1ce048d43aee58110dc0fcbc71
gd83-08-31 s2 t10 US Blues.flac:f8ff10b2484478679ce5b07472edcc16
gd83-08-31 s2 t11 Satisfaction.flac:f7c6a5f6acac42ac10fd74e57dda678e

Comments
Add Comment
Other Sources (comments)
AUD (Senn. 421?s)> MC> DAT>... (1) flac16; Lineage: AUD... (0) flac16; AUD (Senn.... (0) flac16; Source: 2... (0) flac16/48kHz;... (0) flac16; Source Info:... (0) flac16/44.1 ... (0) flac24/48 Master:... (0)
Date User Comment