Browse Collections Artists Sources   Search Dates

Add Show    List Management    Help


Grateful Dead 08/31/83
Silva Hall, Hult Center, Eugene, OR
Comments Add Comment    Source Collectors    Add to Collection    Add to Want List    History
Source # 141490 Other Sources
Entered by Matt Vernon
Checksums ffp , flac-md5
Disc Counts 0 / 0
Media Size
Date Circulated
Date Added
03/26/2018
03/26/2018
Source Summary flac16; Source Info: Otto Rice's Master (FOB) Audience Cassettes; Sennheiser 421 mics > Sony D5; Transfer Info: Master Cassettes (Nakamichi BX-300)> Apogee Mini Me 24/96 > Apogee Mini DAC > Adobe Audition 3.0 (24/96)> TLH flac2496; This is a 16/44 fileset. 24-bit > 16-bit via dBpoweramp 
  Archive
Source Information - Download Text | Download Zip
Grateful Dead
Silva Hall
Hult Center for the Performing Arts
Eugene, OR
Wednesday August 31, 1983

This is a 16/44 fileset. 24-bit > 16-bit via dBpoweramp

Source Info:
Otto Rice's Master (FOB) Audience Cassettes; Sennheiser 421 mics > Sony D5

Transfer Info:
Master Cassettes (Nakamichi BX-300)> Apogee Mini Me 24/96 > Apogee Mini DAC > Adobe Audition 3.0 (24/96)> TLH flac2496

Notes:
- Thanks to Otto Rice for the master cassette source
- Thanks to Matt Smith for the transfer
- Thanks to Charlie Miller for coordinating this effort
- Thanks to Ernie Dodd and Bill Tetzeli for the shnid84934 Sennheiser 421 source which supplies the last 5:38 of "West LA Fadeaway", "Hell In A Bucket" in its entirety, as well as the the first 2:14 of "Althea"
- Thanks to daweez and d5scott for the shnid111598 Sennheiser 421 source which supplies a 0:18 patch in "Drums > Space", as well as the crowd and first few notes of "Satisfaction" (0:08 total)
- Beginning of "Alabama Getaway" is muffled
- Truckin' space included in "Truckin'"
- Transitions smoothed

Mastered by Scott Clugston
March 24, 2018

Set One:
s1 t01 - Alabama Getaway >
s1 t02 - Greatest Story Ever Told
s1 t03 - Dupree's Diamond Blues
s1 t04 - Me & My Uncle >
s1 t05 - Mexicali Blues
s1 t06 - West LA Fadeaway
s1 t07 - Hell In A Bucket
s1 t08 - Althea
s1 t09 - Cassidy >
s1 t10 - Don't Ease Me In

Set Two:
s2 t01 - Cold Rain & Snow
s2 t02 - Playin' In The Band >
s2 t03 - China Doll >
         Jam >
s2 t04 - Drums >
s2 t05 - Space >
         Jam >
s2 t06 - Truckin' >
s2 t07 - Stella Blue >
s2 t08 - Around & Around >
s2 t09 - Good Lovin'
Encore:
s2 t10 - US Blues
s2 t11 - Satisfaction



    length     expanded size    cdr  WAVE problems  fmt   ratio  filename
     5:40.63       60124220 B   ---   --   ---xx   flac  0.5867  gd83-08-31 s1 t01 Alabama Getaway.flac
     4:03.64       43015772 B   ---   --   ---xx   flac  0.5833  gd83-08-31 s1 t02 Greatest Story Ever Told.flac
     7:14.51       76677596 B   ---   --   ---xx   flac  0.6196  gd83-08-31 s1 t03 Dupree's Diamond Blues.flac
     3:00.55       31881404 B   ---   --   ---xx   flac  0.6265  gd83-08-31 s1 t04 Me & My Uncle.flac
     5:14.14       55422572 B   ---   --   ---xx   flac  0.6248  gd83-08-31 s1 t05 Mexicali Blues.flac
     9:13.35       97631564 B   ---   --   ---xx   flac  0.6472  gd83-08-31 s1 t06 West LA Fadeaway.flac
     5:22.46       56909036 B   ---   --   ---xx   flac  0.6946  gd83-08-31 s1 t07 Hell In A Bucket.flac
     9:48.08      103742060 B   ---   --   ---xx   flac  0.6425  gd83-08-31 s1 t08 Althea.flac
     6:17.62       66648668 B   ---   --   ---xx   flac  0.6624  gd83-08-31 s1 t09 Cassidy.flac
     3:17.04       34760252 B   ---   --   ---xx   flac  0.6792  gd83-08-31 s1 t10 Don't Ease Me In.flac
     7:06.70       75311084 B   ---   --   ---xx   flac  0.6614  gd83-08-31 s2 t01 Cold Rain & Snow.flac
    10:47.70      114295484 B   ---   --   ---xx   flac  0.6454  gd83-08-31 s2 t02 Playin' In The Band.flac
    10:41.01      113074796 B   ---   --   ---xx   flac  0.6289  gd83-08-31 s2 t03 China Doll.flac
     6:47.39       71886572 B   ---   --   ---xx   flac  0.5878  gd83-08-31 s2 t04 Drums.flac
     6:04.49       64324892 B   ---   --   ---xx   flac  0.5712  gd83-08-31 s2 t05 Space.flac
    10:02.55      106322204 B   ---   --   ---xx   flac  0.6396  gd83-08-31 s2 t06 Truckin'.flac
     9:32.24      100957292 B   ---   --   ---xx   flac  0.6086  gd83-08-31 s2 t07 Stella Blue.flac
     3:54.40       41371724 B   ---   --   ---xx   flac  0.6559  gd83-08-31 s2 t08 Around & Around.flac
     9:54.49      104896892 B   ---   --   ---xx   flac  0.6470  gd83-08-31 s2 t09 Good Lovin'.flac
     5:36.61       59413916 B   ---   --   ---xx   flac  0.6570  gd83-08-31 s2 t10 US Blues.flac
     7:19.12       77467868 B   ---   --   ---xx   flac  0.6562  gd83-08-31 s2 t11 Satisfaction.flac
   147:01.47     1556135868 B                            0.6347  (21 files)


Show Checksums
ffp
gd83-08-31 s1 t01 Alabama Getaway.flac:c8230d772bf7a76fdff2020d270c91df
gd83-08-31 s1 t02 Greatest Story Ever Told.flac:0627bab20f97df96d0cd88e4170a2c74
gd83-08-31 s1 t03 Dupree's Diamond Blues.flac:447b3da3958ed04b54a813dfdb84a99c
gd83-08-31 s1 t04 Me & My Uncle.flac:a274660c1057c4c1c4d3dc1a6a4b4d54
gd83-08-31 s1 t05 Mexicali Blues.flac:d335399b225bfbdd87fe05d76a531535
gd83-08-31 s1 t06 West LA Fadeaway.flac:ae9e04e42a73c850df83fe3d800e6f81
gd83-08-31 s1 t07 Hell In A Bucket.flac:d4f23a6816e6338cdb01c1d8c2c2d0e8
gd83-08-31 s1 t08 Althea.flac:06cab95444a7e1f4a959ccdf51da5ce1
gd83-08-31 s1 t09 Cassidy.flac:926cf4c24a871c0afb1781b9808d4db6
gd83-08-31 s1 t10 Don't Ease Me In.flac:f7ba3b6002027fe460a96c9213643984
gd83-08-31 s2 t01 Cold Rain & Snow.flac:186e4e6879a91848aea2d79fa00b71ef
gd83-08-31 s2 t02 Playin' In The Band.flac:1b5cb638293f44544ef9a7570c8761a8
gd83-08-31 s2 t03 China Doll.flac:e6defa67446e97ba25fa2c4a243247fb
gd83-08-31 s2 t04 Drums.flac:e524c9c39b52092229b7383e3395133a
gd83-08-31 s2 t05 Space.flac:f1afda0d73115100b353cf2d8ad11c1f
gd83-08-31 s2 t06 Truckin'.flac:6076ce1061028f58155340de06bf2231
gd83-08-31 s2 t07 Stella Blue.flac:351185a7e0a381f71bb024f787cea503
gd83-08-31 s2 t08 Around & Around.flac:0847443d951085d1f808c24d98f20ddb
gd83-08-31 s2 t09 Good Lovin'.flac:cfdfc291c2a952725fb20a8e8d5fd568
gd83-08-31 s2 t10 US Blues.flac:3250bc218cc6bce12908643318378b62
gd83-08-31 s2 t11 Satisfaction.flac:37efd8c34c710f8b2b45ae0da13b2552
flac-md5
885057fc33673c4a05083cacf77d2145 *gd83-08-31 s1 t01 Alabama Getaway.flac
3e11c8cfea8afe75c66e1e9999796b13 *gd83-08-31 s1 t02 Greatest Story Ever Told.flac
6d5b5dfe0fffe20645e6427548124788 *gd83-08-31 s1 t03 Dupree's Diamond Blues.flac
87fd9c8e1f68bcae5eadd33fbcbfcc35 *gd83-08-31 s1 t04 Me & My Uncle.flac
a20278dcdd9bb0185a2f8d592109757b *gd83-08-31 s1 t05 Mexicali Blues.flac
c33380fd7ed36236e9dcf982338a687f *gd83-08-31 s1 t06 West LA Fadeaway.flac
b57f56be03f8bd7355cde843743affea *gd83-08-31 s1 t07 Hell In A Bucket.flac
e506dac137c59b19af2d96bb84ce92c4 *gd83-08-31 s1 t08 Althea.flac
00d79f5803c4531ba6a02f3aa1724c35 *gd83-08-31 s1 t09 Cassidy.flac
4e00076a6dbbd564ffa4c765aa6c6e21 *gd83-08-31 s1 t10 Don't Ease Me In.flac
edcea046dd8f53213b6fb0161a53a22d *gd83-08-31 s2 t01 Cold Rain & Snow.flac
39ae039be0e6babdda338a6c8464f4d1 *gd83-08-31 s2 t02 Playin' In The Band.flac
3f5ea785556e774b6a78835a7e2a2bb5 *gd83-08-31 s2 t03 China Doll.flac
5ee461c116bb0c4cfb17991a6933b93e *gd83-08-31 s2 t04 Drums.flac
7dfc1990891a9b2acd76ba2f6458a527 *gd83-08-31 s2 t05 Space.flac
634d582b61098bd60f7a1a706ec585a7 *gd83-08-31 s2 t06 Truckin'.flac
fe9d565915b0eb8a6224b4d564a1edea *gd83-08-31 s2 t07 Stella Blue.flac
57bf78f1f1fdc714424a25f7c95d7611 *gd83-08-31 s2 t08 Around & Around.flac
65af1739e6d370ec2d8604179e5d305b *gd83-08-31 s2 t09 Good Lovin'.flac
409526588fb46b971680f6fca3aab34b *gd83-08-31 s2 t10 US Blues.flac
76f9e74fd22c491586c55def63245de7 *gd83-08-31 s2 t11 Satisfaction.flac

Comments
Add Comment
Other Sources (comments)
AUD (Senn. 421?s)> MC> DAT>... (1) flac16; Lineage: AUD... (0) flac16; AUD (Senn.... (0) flac16; Source: 2... (0) flac16/48kHz;... (0) flac24; Source Info:... (0) flac16/44.1 ... (0) flac24/48 Master:... (0)
Date User Comment