Browse Collections Artists Sources   Search Dates

Add Show    List Management    Help


Garcia 04/18/81
Phoenix Theater, Petaluma, CA
Comments Add Comment    Source Collectors    Add to Collection    Add to Want List    History
Source # 141516 Other Sources
Entered by Joe Jupille
Checksums ffp , flac-md5
Disc Counts 0 / 0
Media Size Compressed: 1.25 GB (1337545011 bytes)
Uncompressed: 1.82 GB (1957621528 bytes)
Date Circulated
Date Added
03/29/2018
03/29/2018
Source Summary JGB; flac 24; crew tape, Unknown Mics > Cassette Master (TDK SA-C90); Transfer Info: Cassette Master (Nakamichi CR-7A) > Tascam DA-3000 (DSF 1-bit/5.8 MHz) > KORG AudioGate 4 > Adobe Audition CC 2015 > Samplitude Pro X3 Suite > FLAC/24 
Source Information - Download Text | Download Zip
Jerry Garcia Band - April 18, 1981
Phoenix Theatre - Petaluma, CA

Recording Info:
Unknown Mics > Cassette Master (TDK SA-C90)

Transfer Info:
Cassette Master (Nakamichi CR-7A) > Tascam DA-3000 (DSF 1-bit/5.8 MHz) >
KORG AudioGate 4 > Adobe Audition CC 2015 > Samplitude Pro X3 Suite > FLAC/24
(1 Disc FLAC)

All Transfers and Mastering By Charlie Miller
[email protected]
July 17, 2017

Notes:
-- Tape flip at start of Tangled Up In Blue
-- This was recorded at the sound booth by the crew

Set 1:
XX - How Sweet It Is (MISSING)
01 - Catfish John
02 - Simple Twist Of Fate
03 - Let It Rock
04 - Sitting In Limbo
05 - Tangled Up In Blue


SHNTOOL OUTPUT:
    length     expanded size    cdr  WAVE problems  fmt   ratio  filename
    10:17.148     355477418 B   cxx   --   ---xx   flac  0.6796  01 Catfish John.flac
    15:52.253     548497808 B   cxx   --   ---xx   flac  0.6721  02 Simple Twist Of Fate.flac
     9:16.040     320278988 B   cxx   --   ---xx   flac  0.6927  03 Let It Rock.flac
    11:23.579     393741566 B   cxx   --   ---xx   flac  0.6852  04 Sitting In Limbo.flac
     9:49.628     339625748 B   cxx   --   ---xx   flac  0.6939  05 Tangled Up In Blue.flac
    56:38.648    1957621528 B                            0.6833  (5 files)


Show Checksums
ffp
01 Catfish John.flac:66a0226f00d3450e64e5aa4d688bd67d
02 Simple Twist Of Fate.flac:31616b98be173a0309eb5b200cfbcc9d
03 Let It Rock.flac:f97ef5423fff5651e69753dd38964f8c
04 Sitting In Limbo.flac:c55bae3e8971ccc76b89fcdabd6e143d
05 Tangled Up In Blue.flac:ecbf75d6b24c581f2dc717b9c2b50dff
flac-md5
28c3a87fddcd007e8cfbc3408d3cbcfa *01 Catfish John.flac
c83c2fe9aa2e9bdfe469cd1b63c6dcf7 *02 Simple Twist Of Fate.flac
c38c74c08674cd80e2b5280cedd61da7 *03 Let It Rock.flac
931f84282ea4a9b62114879bac3016b5 *04 Sitting In Limbo.flac
98baa5e9bee36f7f0c951cba74499de3 *05 Tangled Up In Blue.flac

Comments
Add Comment
Other Sources (comments)
JGB: Phil Jaret's JVC M-201... (0) flac1644; Phil Jaret's JVC... (0) flac2496; Phil Jaret's JVC... (0) JGB; flac 16; crew tape,... (0)
Date User Comment