Browse Collections Artists Sources   Search Dates

Add Show    List Management    Help


Grateful Dead 12/08/93
Sports Arena, Los Angeles, CA
Comments Add Comment    Source Collectors    Add to Collection    Add to Want List    History
Source # 141520 Other Sources
Entered by Matt Vernon
Checksums ffp , flac-md5
Disc Counts 0 / 0
Media Size
Date Circulated
Date Added

03/30/2018
Source Summary flac16/48 Source Info: FOB Schoeps MK 4-> (?)-> DAT Transfer Info: DAT Tape (Panasonic SV-3700) -> Coxial SPDIF-> Marantz PMD 661 MKII (Solid State Recorder)-> SD Card-> Wav-> Flac Level 8-> Tagged (16/48) Transfers by Pete Ebel 
  Archive
Source Information - Download Text | Download Zip
Grateful Dead
Sports Arena - Los Angeles - CA
December 8, 1993

Source Info:
FOB Schoeps MK 4-> (?)-> DAT


Transfer Info:
DAT Tape (Panasonic SV-3700) -> Coxial SPDIF-> Marantz PMD 661 MKII (Solid State Recorder)->
SD Card-> Wav-> Flac Level 8-> Tagged (16/48)



Transfers by Pete Ebel
March 29, 2018


Notes:
* Crowd Patched from (1:41:26-> 1:41:56) Tuning Before Encore.
* Set #2 Is Seamless

* Transfer From DAT -> Wav (48k)


Set #1:
01. Tuning
02. Rain
03. Let The Good Times Roll
04. King Bee
05. Stagger Lee
06. Me & My Uncle
07. Mexicali Blues
08. Lazy River Road
09. Masterpiece
10. Row Jimmy
11. Picasso Moon

Set #2:
12. Tuning
13. Iko-Iko
14. Way To Go Home
15. Playing In The Band
16. Uncle John's Band
17. Drumz
18. Space
19. The Last Time
20. Morning Dew
21. Sugar Magnolia

Encore:
22. I Fought The Law




SHNTOOL OUTPUT:
    length     expanded size    cdr  WAVE problems  fmt   ratio  filename
     2:42.653      31229484 B   cxx   --   ---xx   flac  0.4223  01 Tuning.flac
     5:00.840      57761324 B   cxx   --   ---xx   flac  0.5332  02 Rain.flac
     3:58.800      45849644 B   cxx   --   ---xx   flac  0.5405  03 Let The good Times Roll.flac
     7:58.360      91845164 B   cxx   --   ---xx   flac  0.5393  04 King Bee.flac
     9:41.533     111654444 B   cxx   --   ---xx   flac  0.5302  05 Stagger Lee.flac
     3:02.200      34982444 B   cxx   --   ---xx   flac  0.5482  06 Me & My Uncle.flac
     6:47.413      78223404 B   cxx   --   ---xx   flac  0.5203  07 Mexicali Blues.flac
     7:55.000      91200044 B   cxx   --   ---xx   flac  0.5301  08 Lazy River Road.flac
     6:23.813      73692204 B   cxx   --   ---xx   flac  0.5260  09 Masterpiece.flac
     8:16.760      95377964 B   cxx   --   ---xx   flac  0.5145  10 Row Jimmy.flac
     6:58.949      80438224 B   cxx   --   ---xx   flac  0.5970  11 Picasso Moon.flac
     2:15.013      25922604 B   cxx   --   ---xx   flac  0.3298  12 Tuning.flac
     7:59.787      92119084 B   cxx   --   ---xx   flac  0.5590  13 Iko-Iko.flac
     7:06.160      81822764 B   cxx   --   ---xx   flac  0.5358  14 Way To Go Home.flac
     8:40.867     100006444 B   cxx   --   ---xx   flac  0.5355  15 Playing In The Band.flac
    15:49.053     182218284 B   cxx   --   ---xx   flac  0.5356  16 Uncle John's Band.flac
    11:59.293     138104364 B   cxx   --   ---xx   flac  0.4627  17 Drumz.flac
    16:18.213     187817004 B   cxx   --   ---xx   flac  0.3788  18 Space.flac
    11:43.347     135042604 B   cxx   --   ---xx   flac  0.5505  19 The Last Time.flac
     9:28.840     109217324 B   cxx   --   ---xx   flac  0.4998  20 Morning Dew.flac
    12:04.280     139061804 B   cxx   --   ---xx   flac  0.5240  21 Sugar Magnolia.flac
     3:04.631      35449156 B   cxx   --   ---xx   flac  0.5743  22 I Fought The Law.flac
   175:15.806    2019035780 B                            0.5120  (22 files)



Show Checksums
ffp
01 Tuning.flac:04a6a867bc71fe79b3b49158b6293476
02 Rain.flac:f7e33f057dfb3d7b8d156153d8f8d3b2
03 Let The good Times Roll.flac:2c1b8d79a0ea843553052515f3b2dea7
04 King Bee.flac:f711962362e90c874d86d1cc11a0b26a
05 Stagger Lee.flac:e799f71cb49e7585e62a6ad300b7deec
06 Me & My Uncle.flac:465e2a96bc3f68cd5d48be7113f68cea
07 Mexicali Blues.flac:8b22e9e182bf882046d1e347d67e293c
08 Lazy River Road.flac:abb7ce22c58919ee03f431a469452a94
09 Masterpiece.flac:63b621e9e3c6103de04a4d02155b3fc2
10 Row Jimmy.flac:7a54595618407b3e99132dc459b57b27
11 Picasso Moon.flac:67952051a88d0f10fb790c7be9f8ce89
12 Tuning.flac:03eee28afc1869885f6445db9b1c38de
13 Iko-Iko.flac:973a1d10d8c406efef95227c0ef4c45b
14 Way To Go Home.flac:c7d0ccad84ec1f5900131cb2a3fd8f35
15 Playing In The Band.flac:b567c4465a736078d737b41882d5a108
16 Uncle John's Band.flac:d9066d7ec99d674695d1b918501616c6
17 Drumz.flac:a1885fdd784feeefc2eefae6d49cca6e
18 Space.flac:4a7b77287e07c47ca487466b28a8e7d1
19 The Last Time.flac:08ab458fca7d507a8a532b65f230f0c0
20 Morning Dew.flac:efef8a09d1bb2434cc716f012bfc5549
21 Sugar Magnolia.flac:092ee620a58c530d8dc0b3c532a6fc83
22 I Fought The Law.flac:238fa3f239986e49abf2966f3074ca19
flac-md5
189c47d442379222318672ba9b1ebbf4 *01 Tuning.flac
367b3fab33969b0b9e26b2d3c079ffae *02 Rain.flac
629bed57bc94334cd72671047c88d0b2 *03 Let The good Times Roll.flac
5c2898b95823387790e97a7187144232 *04 King Bee.flac
fffbe08895757d0fc287705b4aee48ca *05 Stagger Lee.flac
5657b9630aaa83ca45f15dbde478f5f3 *06 Me & My Uncle.flac
8b3dafe4d8530d8d84e01f8b797f88da *07 Mexicali Blues.flac
03e9845a21b76421dc9e4d45d535d30a *08 Lazy River Road.flac
44932f6d6ee496d04735b29c1fc70f94 *09 Masterpiece.flac
6e92da0be05228399a66d846a1e6d72a *10 Row Jimmy.flac
fcf5f09a4ba945dc9e6006a5dc1affcf *11 Picasso Moon.flac
a1e3d280036475dc92723de350e33810 *12 Tuning.flac
fcf5051ff96590db6ea1fb7c1042ec49 *13 Iko-Iko.flac
3e80ae54191e050795af0ed8d2c57367 *14 Way To Go Home.flac
fd4b0bd8d3e8fd7db7835b2098b28dc6 *15 Playing In The Band.flac
16db6927867190a25d30d9223f36dfd3 *16 Uncle John's Band.flac
48ec0d73112b7e7ab03178b5ba367c92 *17 Drumz.flac
749f7d98fbe4d4f85fc23fa7fcc626d6 *18 Space.flac
736215c5fb010cf9dc8033b30e2df570 *19 The Last Time.flac
fa5b946dff41eed7caa9b92741115086 *20 Morning Dew.flac
6641465783db7a34f6fb3eb5ddeee6e4 *21 Sugar Magnolia.flac
77cd847bd2e738e681e5b347df7a532c *22 I Fought The Law.flac

Comments
Add Comment
Other Sources (comments)
SBD > DAT > CDR; via C.... (0) flac16; Recording... (0) flac16/44.1 Source... (0)
Date User Comment