Browse Collections Artists Sources   Search Dates

Add Show    List Management    Help


Grateful Dead 12/08/93
Sports Arena, Los Angeles, CA
Comments Add Comment    Source Collectors    Add to Collection    Add to Want List    History
Source # 141521 Other Sources
Entered by Matt Vernon
Checksums ffp , flac-md5
Disc Counts 0 / 0
Media Size
Date Circulated
Date Added

03/30/2018
Source Summary flac16/44.1 Source Info: TS Schopes CMC 3 Mk 2-> DAT Transfer Info: Dat Tape (Panasonic SV-3700)-> Marantz CDR-615-> CD (Late 90's) Extract Wav-> Flac Level 8-> Tagged (16/44.1) Transfers by Pete Ebel 
  Archive
Source Information - Download Text | Download Zip
Grateful Dead
Sports Arena - Los Angeles - CA
December 8, 1993

Source Info:
TS Schopes CMC 3 Mk 2-> DAT


Transfer Info:
Dat Tape (Panasonic SV-3700)-> Marantz CDR-615-> CD (Late 90's)
Extract Wav-> Flac Level 8-> Tagged (16/44.1)



Transfers by Pete Ebel
March 29, 2018


Notes:
* Set #2 Is Seamless


Set #1:
01. Rain
02. Let The Good Times Roll
03. King Bee
04. Stagger Lee
05. Me & My Uncle
06. Mexicali Blues
07. Lazy River Road
08. Masterpiece
19. Row Jimmy
10. Picasso Moon

Set #2:
11. Iko-Iko
12. Way To Go Home
13. Playing In The Band
14. Uncle John's Band
15. Drumz
16. Space
17. The Last Time
18. Morning Dew
19. Sugar Magnolia

Encore:
20. I Fought The Law




SHNTOOL OUTPUT:
    length     expanded size    cdr  WAVE problems  fmt   ratio  filename
     5:29.50       58153244 B   ---   --   ---xx   flac  0.5463  01 Rain.flac
     3:56.03       41637500 B   ---   --   ---xx   flac  0.5852  02 Let The Good Times Roll.flac
     8:02.22       85076588 B   ---   --   ---xx   flac  0.5480  03 King Bee.flac
     9:41.22      102540188 B   ---   --   ---xx   flac  0.5337  04 Stagger Lee.flac
     3:02.31       32177756 B   ---   --   ---xx   flac  0.5379  05 Me & My Uncle.flac
     6:48.15       72006524 B   ---   --   ---xx   flac  0.5084  06 Mexicali Blues.flac
     7:48.21       82604636 B   ---   --   ---xx   flac  0.5226  07 Lazy River Road.flac
     6:30.54       68923052 B   ---   --   ---xx   flac  0.5152  08 Masterpiece.flac
     8:16.37       87581468 B   ---   --   ---xx   flac  0.4977  09 Row Jimmy.flac
     7:18.35       77345564 B   ---   --   ---xx   flac  0.5576  10 Picasso Moon.flac
     8:08.63       86231420 B   ---   --   ---xx   flac  0.5516  11 Iko-Iko.flac
     7:05.64       75120572 B   ---   --   ---xx   flac  0.5318  12 Way To Go Home.flac
     8:42.27       92144348 B   ---   --   ---xx   flac  0.5325  13 Playing In The Band.flac
    15:57.47      168925388 B   ---   --   ---xx   flac  0.5317  14 Uncle John's Band.flac
    11:34.68      122581580 B   ---   --   ---xx   flac  0.4648  15 Drumz.flac
    16:56.59      179361212 B   ---   --   ---xx   flac  0.4035  16 Space.flac
    11:15.09      119091212 B   ---   --   ---xx   flac  0.5508  17 The Last Time.flac
     9:35.43      101531180 B   ---   --   ---xx   flac  0.5007  18 Morning Dew.flac
    12:03.41      127633676 B   ---   --   ---xx   flac  0.5202  19 Sugar Magnolia.flac
     3:20.73       35451740 B   ---   --   ---xx   flac  0.5518  20 I Fought The Law.flac
   171:35.34     1816118848 B                            0.5148  (20 files)


Show Checksums
ffp
01 Rain.flac:22ec87a9ee728f50f93dfaa03232d75e
02 Let The Good Times Roll.flac:b083d8c0c1b51e9a062264bcfae24958
03 King Bee.flac:1cfa900d59986c759dfcdc4cbfef59e9
04 Stagger Lee.flac:0b131bdf43e29b3a71b5e7702df6fc59
05 Me & My Uncle.flac:ceea392e7ed51167a617b42e1714dcad
06 Mexicali Blues.flac:8a84d3d00ccea0279e94c5d45c17ce25
07 Lazy River Road.flac:16d9a300f10bec798e84e5faed788959
08 Masterpiece.flac:ac700772a2717365b364a4f4e53ecfd1
09 Row Jimmy.flac:301ffc3603c8ee2cc84624c7e1641441
10 Picasso Moon.flac:115525c95427091217a3f1ca9e6ad824
11 Iko-Iko.flac:849b558aa06abc926e292dc7c8968340
12 Way To Go Home.flac:ddb307a1c03a1d2bbe90806245ac6d31
13 Playing In The Band.flac:3749e7f829d0ae46efbcf30a2ece3b4c
14 Uncle John's Band.flac:58c5fd970e04d48a8724c04451d0a223
15 Drumz.flac:fbb29b6af273cfb629e60d7b1316fa2d
16 Space.flac:782452dce463b90e6221776b97bdd5f8
17 The Last Time.flac:8dc2b4aa0842e14d232ac83bf4cc3a76
18 Morning Dew.flac:72fa832884b94cc539559ee43ccf7087
19 Sugar Magnolia.flac:d31523cbe4a95ac720f937bed78726d4
20 I Fought The Law.flac:dba99f9775ec9c503fea0a01dc0beae1
flac-md5
9acb891fac3d6f2b3a51bc9ff96b6e8b *01 Rain.flac
9541501a6bbbd2ec9f07ba3d6adbaf38 *02 Let The Good Times Roll.flac
b3bc2ed5de1ceb59bb4ea7af2907f09c *03 King Bee.flac
1a0c8521f582c87b75f1cf83d49a3c35 *04 Stagger Lee.flac
40d9c4c9c52c14d2ae58a0ad759698ee *05 Me & My Uncle.flac
33e13d794092c6da1eb513570f3c8f26 *06 Mexicali Blues.flac
96514bc67244fa74e5b6d39197ed33a7 *07 Lazy River Road.flac
76ca74e5670504238cebe2654d0eb964 *08 Masterpiece.flac
e70e1aa7b4d7a9fcdb3c69a989a5e950 *09 Row Jimmy.flac
938b0e7da8a816b053f54dac08bcc4e7 *10 Picasso Moon.flac
39c44b74d52cfd17f0981867e4886845 *11 Iko-Iko.flac
6918c5d08c1b6590e02ecd18c7d3b5a6 *12 Way To Go Home.flac
18c38568743d694c13e9634e56c0a480 *13 Playing In The Band.flac
857086ced4cf14cd2d360638f7d8d49c *14 Uncle John's Band.flac
ae81a907e794c1d4afdccbe06db262a4 *15 Drumz.flac
b29f7b9ddcd93df4a10564951eecd7c0 *16 Space.flac
18fe11d6eb87da16a953471fb865e9d2 *17 The Last Time.flac
8a9d3d30ebdf2870146df68edd9ccd65 *18 Morning Dew.flac
bd38eb5d5b6edf617562b137cfef296b *19 Sugar Magnolia.flac
95d3c695d311d3faec2263226160bb24 *20 I Fought The Law.flac

Comments
Add Comment
Other Sources (comments)
SBD > DAT > CDR; via C.... (0) flac16; Recording... (0) flac16/48 Source... (0)
Date User Comment