Browse Collections Artists Sources   Search Dates

Add Show    List Management    Help


Garcia 04/18/81
Phoenix Theater, Petaluma, CA
Comments Add Comment    Source Collectors    Add to Collection    Add to Want List    History
Source # 141531 Other Sources
Entered by Joe Jupille
Checksums jgb1981-04-18..ffp , jgb1981-04-18..md5
Disc Counts 0 / 0
Media Size Compressed: 346.28 MB (363102208 bytes)
Date Circulated
Date Added
09/22/2017
03/31/2018
Source Summary JGB; flac 16; crew tape, Unknown Mics > Cassette Master (TDK SA-C90); Transfer Info: Cassette Master (Nakamichi CR-7A) > Tascam DA-3000 (DSF 1-bit/5.8 MHz) > KORG AudioGate 4 > Adobe Audition CC 2015 > Samplitude Pro X3 Suite > FLAC 
Source Information - Download Text | Download Zip
Jerry Garcia Band - April 18, 1981
Phoenix Theatre - Petaluma, CA

Recording Info:
Unknown Mics > Cassette Master (TDK SA-C90)

Transfer Info:
Cassette Master (Nakamichi CR-7A) > Tascam DA-3000 (DSF 1-bit/5.8 MHz) >
KORG AudioGate 4 > Adobe Audition CC 2015 > Samplitude Pro X3 Suite > FLAC/
(1 Disc FLAC)

All Transfers and Mastering By Charlie Miller
[email protected]
July 17, 2017

Notes:
-- Tape flip at start of Tangled Up In Blue
-- This was recorded at the sound booth by the crew
-- This was 138817 24 bit -> 16 bit, those were never given those #
-- This is that, but now #s are 141516 24 bit -> 16 bit

Set 1:
XX - How Sweet It Is (MISSING)
01 - Catfish John
02 - Simple Twist Of Fate
03 - Let It Rock
04 - Sitting In Limbo
05 - Tangled Up In Blue


SHNTOOL OUTPUT:
    length     expanded size    cdr  WAVE problems  fmt   ratio  filename
    10:17.11      108864716 B   ---   --   ---xx   flac  0.6092  01 Catfish John.flac
    15:52.19      167977532 B   ---   --   ---xx   flac  0.5629  02 Simple Twist Of Fate.flac
     9:16.03       98085500 B   ---   --   ---xx   flac  0.6379  03 Let It Rock.flac
    11:23.43      120582380 B   ---   --   ---xx   flac  0.6011  04 Sitting In Limbo.flac
     9:49.48      104012540 B   ---   --   ---xx   flac  0.6457  05 Tangled Up In Blue.flac
    56:38.49      599522668 B                            0.6056  (5 files)



Show Checksums
jgb1981-04-18..ffp
01 Catfish John.flac:a8566b5e7dc8488d6f94373ad0d7069d
02 Simple Twist Of Fate.flac:9d35d03a82c433394111360a7e4899ba
03 Let It Rock.flac:9244b4e712676dc057a2f33221b6513f
04 Sitting In Limbo.flac:ab1c46e6580fb4c7d386ead7934136ea
05 Tangled Up In Blue.flac:9491ccb5914409c0e2bb3008ce28ed48
jgb1981-04-18..md5
61142668f2fc82a196ab55f4123c6018 *01 Catfish John.flac
b7b29e612efaec1ade5c9e31775f742d *02 Simple Twist Of Fate.flac
bb8371bfcb6474a9824f07d3fb176fb2 *03 Let It Rock.flac
a931a30aba7f64dc59419e6e8de799d1 *04 Sitting In Limbo.flac
fae61a37e618eb2dc1863b2712af033a *05 Tangled Up In Blue.flac

Comments
Add Comment
Other Sources (comments)
JGB: Phil Jaret's JVC M-201... (0) flac1644; Phil Jaret's JVC... (0) flac2496; Phil Jaret's JVC... (0) JGB; flac 24; crew tape,... (0)
Date User Comment