Browse Collections Artists Sources   Search Dates

Add Show    List Management    Help


Grateful Dead 04/10/83
West Virginia University Coliseum, Morgantown, WV
Comments Add Comment    Source Collectors    Add to Collection    Add to Want List    History
Source # 141630 Other Sources
Entered by Matt Vernon
Checksums ffp , flac-md5
Disc Counts 0 / 0
Media Size
Date Circulated
Date Added

04/05/2018
Source Summary flac16/44.1 Source Audience Recording: JVC200E Binaural headphone microphones Location: 80 feet from stage|Right corner of SBD ~ 20' ROC Lineage: MA CA FOB - JVC200E worn on head >> Sony TCD5M w TDK MAC-90 No Dolby Playback: Nakamichi LX-5 ->Tascam DR-680|SD card 24/48 Processing: SD->Audacity (Windows 7)-> CDWav editor ->TLH (flac) Taped by; Executive Crew: Kyle Holbrook, Olvy Johnson, Mike Yacavone Transferred by Kyle Holbrook 
  Archive
Source Information - Download Text | Download Zip
Grateful Dead
Date 1983-04-10
WVU Coliseum
Morgantown W VA

This is a 16 bit 44.1khz fileset

d1t01 - Samson and Delilah    /
d1t02 - Friend of the Devil
d1t03 - Me and My Uncle >
d1t04 - Mexicali Blues        /
d1t05 - Althea
d1t06 - Little Red Rooster  //
d1t07 - Tennessee Jed
d1t08 - My Brother Esau    #
d1t09 - Might As Well

d2t01 - Touch of Grey
d2t02 - Man Smart/Woman Smarter
d2t03 - Uncle John's Band >
d2t04 - Playin' in the Band >
d2t05 - drums  //
d2t06 - space >
d2t07 - The Wheel >    +
d2t08 - Playin' in the Band >
d2t09 - China Doll >
d2t10 - Sugar Magnolia
d2t11 - encore U.S. Blues    * &

Show notes:
#: Alternate first verse ( Esau sells real-estate on roller skates in LA)
* Bob: "This one's dedicated to the girl with lobotomy eyes"

Recording Notes:
Occasional drop outs throughout; probably a transfer/age issue.
There are occasional low frequency "blurts" or Phil pharts as we called them due to what was later diagnosed to be contact issues with his pickups in the new on this tour Modulus 6 string bass.
/  tape paused
// tape flip
+ slight tape drag at start (accidental pause button hit?)
& slight tape drag near end

Source Audience Recording: JVC200E Binaural headphone microphones
Location: 80 feet from stage|Right corner of SBD ~ 20' ROC
Lineage: MA CA FOB - JVC200E worn on head >> Sony TCD5M w TDK MAC-90 No Dolby
Playback: Nakamichi LX-5 ->Tascam DR-680|SD card 24/48
Processing: SD->Audacity (Windows 7)-> CDWav editor ->TLH (flac)

*********** Headphone playback is optimal for this binaural recording********

Taped by; Executive Crew: Kyle Holbrook, Olvy Johnson, Mike Yacavone
Transferred by Kyle Holbrook
============================================================================
The drive to Morgantown was loooong! Much longer than we had figured. It was like the entire drive was uphill, up some mountains then uphill some more! I think alot of tour heads avoided this show for travel or schedule reasons. The venue was a very small arena for the Dead at this time, maybe held 6,000 and I think is where the UWV basketball team played. We arrived too late to be able to have the Beyers with us but did get in the headphone mics. We wound up near the front corner of the soundboard and on the tape you can hear lots of audience chatter, I suspect due to being on the corner and occasional foot traffic.

Classic Sunday Sampson opener and the first set was off to a relatively country and classics evening. Well played if a bit lethargic compared to last night first set. The band and the crew had to drive the same distance we did! The second set was the stuff that becomes the reason why people got hooked on the Dead's music. The Uncle JOhn's Band > Playin > drumspace > Wheel > Playin > China Doll sequence was sublime Dead, hailing back to their 1974-77 era. You can almost hear the small size of the venue on the tape.

We had to hook it on out of town and back home to Syracuse so all I recall of Morgantown is it is up high in the mountains because our drive was mainly downhill for the first 90 minutes.

- - - - - sbes at end of sets

    length     expanded size    cdr  WAVE problems  fmt   ratio  filename
    13:41.02      144829148 B   ---   --   ---xx   flac  0.6237  gd1983-04-15-16senn421holbrooks1t01.flac
     6:46.20       71665484 B   ---   --   ---xx   flac  0.6190  gd1983-04-15-16senn421holbrooks1t02.flac
     5:40.04       59985452 B   ---   --   ---xx   flac  0.6275  gd1983-04-15-16senn421holbrooks1t03.flac
     8:59.17       95119628 B   ---   --   ---xx   flac  0.6212  gd1983-04-15-16senn421holbrooks1t04.flac
     3:33.30       37643804 B   ---   --   ---xx   flac  0.5942  gd1983-04-15-16senn421holbrooks1t05.flac
    10:02.67      106350428 B   ---   --   ---xx   flac  0.6277  gd1983-04-15-16senn421holbrooks1t06.flac
     7:37.27       80677724 B   -b-   --   ---xx   flac  0.6372  gd1983-04-15-16senn421holbrooks1t07.flac
    10:33.23      111715340 B   ---   --   ---xx   flac  0.6265  gd1983-04-15-16senn421holbrooks2t01.flac
     8:22.02       88557548 B   ---   --   ---xx   flac  0.6571  gd1983-04-15-16senn421holbrooks2t02.flac
     7:43.41       81769676 B   ---   --   ---xx   flac  0.6204  gd1983-04-15-16senn421holbrooks2t03.flac
     4:47.74       50800892 B   ---   --   ---xx   flac  0.6833  gd1983-04-15-16senn421holbrooks2t04.flac
    12:44.58      134906060 B   ---   --   ---xx   flac  0.6287  gd1983-04-15-16senn421holbrooks2t05.flac
     1:52.37       19843868 B   ---   --   ---xx   flac  0.6441  gd1983-04-15-16senn421holbrooks2t06.flac
     6:41.48       70849340 B   ---   --   ---xx   flac  0.6193  gd1983-04-15-16senn421holbrooks2t07.flac
    11:53.19      125817932 B   ---   --   ---xx   flac  0.5816  gd1983-04-15-16senn421holbrooks2t08.flac
     9:31.65      100877324 B   ---   --   ---xx   flac  0.6294  gd1983-04-15-16senn421holbrooks2t09.flac
     5:59.25       63386444 B   ---   --   ---xx   flac  0.6513  gd1983-04-15-16senn421holbrooks2t10.flac
     6:24.33       67815260 B   ---   --   ---xx   flac  0.6669  gd1983-04-15-16senn421holbrooks2t11.flac
     3:46.72       40035788 B   ---   --   ---xx   flac  0.6518  gd1983-04-15-16senn421holbrooks2t12.flac
     3:29.09       36888812 B   ---   --   ---xx   flac  0.6320  gd1983-04-15-16senn421holbrooks2t13.flac
     6:56.13       73412732 B   -b-   --   ---xx   flac  0.6239  gd1983-04-15-16senn421holbrooks2t14.flac
   157:07.11     1662948684 B                            0.6287  (21 files)



Show Checksums
ffp
gd1983-04-10jvc200holbrook-16s1t01.flac:e16dc310fb5bbf56a905873677c2442a
gd1983-04-10jvc200holbrook-16s1t02.flac:ca1cb971f74845090837e8272cf5d17f
gd1983-04-10jvc200holbrook-16s1t03.flac:ed9cb3ca201d96f8ed38037ee5927b8a
gd1983-04-10jvc200holbrook-16s1t04.flac:d5766eff0345399a46d9441da5aa6d10
gd1983-04-10jvc200holbrook-16s1t05.flac:176dfa01d09c69c8aad1d0af6abdbeca
gd1983-04-10jvc200holbrook-16s1t06.flac:9e597ce8f19764d283a77793eaa018ba
gd1983-04-10jvc200holbrook-16s1t07.flac:be2c0b108f0d6a53ca894176aeddf6d3
gd1983-04-10jvc200holbrook-16s1t08.flac:2c1d224f19b87673e267deaf1644c3d7
gd1983-04-10jvc200holbrook-16s1t09.flac:31e98e00c868a831eb663eb399b769a1
gd1983-04-10jvc200holbrook-16s2t01.flac:a9ccbd99f3a2e597c589a3db54c2577b
gd1983-04-10jvc200holbrook-16s2t02.flac:a5992976f565f49f35399f2a25fe7cb2
gd1983-04-10jvc200holbrook-16s2t03.flac:88392af0005fc28b95274d9314128d10
gd1983-04-10jvc200holbrook-16s2t04.flac:5f56da3bccf35a905a46b03475b27388
gd1983-04-10jvc200holbrook-16s2t05.flac:ab23e5d8aa0a0c0d8dff0c3fa083d480
gd1983-04-10jvc200holbrook-16s2t06.flac:12df7b398d190951703b3a838a969cad
gd1983-04-10jvc200holbrook-16s2t07.flac:521192e4710d27954f0640edf19cf5f8
gd1983-04-10jvc200holbrook-16s2t08.flac:cd07dfb0b0812dbeef6b93d9eeb68022
gd1983-04-10jvc200holbrook-16s2t09.flac:e0c167067c2110107638e011a8c0cd00
gd1983-04-10jvc200holbrook-16s2t10.flac:0d2d463846ade5416e4ebf7ecb829488
gd1983-04-10jvc200holbrook-16s2t11.flac:57b0084fb8478d8ce322b4f61b0548b2
flac-md5
0b09169b206cb103d9979d2cf1e7489f *gd1983-04-10jvc200holbrook-16s1t01.flac
29312f5b82a9f61e31886e3e973c9b2c *gd1983-04-10jvc200holbrook-16s1t02.flac
1b60c760baf6dd71c6d204eaf969156d *gd1983-04-10jvc200holbrook-16s1t03.flac
a6bedd7d7eeea3bf217a85f33913f561 *gd1983-04-10jvc200holbrook-16s1t04.flac
f54ed23f3eab3f59f2c9130e26957179 *gd1983-04-10jvc200holbrook-16s1t05.flac
858296f9b013bda39ca97ded9d3fed12 *gd1983-04-10jvc200holbrook-16s1t06.flac
9b37b42494fafb006337b32ccb964401 *gd1983-04-10jvc200holbrook-16s1t07.flac
c0968c77ae863c528ec88a95de3e7bcc *gd1983-04-10jvc200holbrook-16s1t08.flac
904c760001049d449ebaad255d5c7dc2 *gd1983-04-10jvc200holbrook-16s1t09.flac
8e0629087a516a8d8ae52fec49258579 *gd1983-04-10jvc200holbrook-16s2t01.flac
f249900204929c4e227fce7bc5c956c4 *gd1983-04-10jvc200holbrook-16s2t02.flac
967c6f39045fca8babd3b68c1be2f147 *gd1983-04-10jvc200holbrook-16s2t03.flac
ef18d0cc6c098d41e6c2732dce5d451f *gd1983-04-10jvc200holbrook-16s2t04.flac
0d63c687c5131180b3918155cac6087c *gd1983-04-10jvc200holbrook-16s2t05.flac
a7b99be523167d40dc4ebc96cea4ecdb *gd1983-04-10jvc200holbrook-16s2t06.flac
288f78d74a341919f19a0d4ff2611c47 *gd1983-04-10jvc200holbrook-16s2t07.flac
8b14c4ad8ec55a775b51bb755edc743e *gd1983-04-10jvc200holbrook-16s2t08.flac
65c2335283b2aa8a49619fd704965fac *gd1983-04-10jvc200holbrook-16s2t09.flac
7ceab0ba0349fe9016675269fb13f333 *gd1983-04-10jvc200holbrook-16s2t10.flac
aa7e92540e3cf38497a2ac4178109807 *gd1983-04-10jvc200holbrook-16s2t11.flac

Comments
Add Comment
Other Sources (comments)
KG 581?s>Sony... (0) Audience Recording:... (0) Set 1 SBD > PCM > Dat x 2 >... (0) flac24; Master... (0) flac16; Master... (0) flac24; 2nd Set AUD:... (0) flac16; 2nd Set AUD:... (0) flac24; aud cassette... (0) flac16; aud cassette... (0) flac24/48 Source... (0)
Date User Comment