Browse Collections Artists Sources   Search Dates

Add Show    List Management    Help


Grateful Dead 04/10/83
West Virginia University Coliseum, Morgantown, WV
Comments Add Comment    Source Collectors    Add to Collection    Add to Want List    History
Source # 141631 Other Sources
Entered by Matt Vernon
Checksums ffp , flac-md5
Disc Counts 0 / 0
Media Size
Date Circulated
Date Added

04/05/2018
Source Summary flac24/48 Source Audience Recording: JVC200E Binaural headphone microphones Location: 80 feet from stage|Right corner of SBD ~ 20' ROC Lineage: MA CA FOB - JVC200E worn on head >> Sony TCD5M w TDK MAC-90 No Dolby Playback: Nakamichi LX-5 ->Tascam DR-680|SD card 24/48 Processing: SD->Audacity (Windows 7)-> CDWav editor ->TLH (flac) Taped by; Executive Crew: Kyle Holbrook, Olvy Johnson, Mike Yacavone Transferred by Kyle Holbrook 
  Archive
Source Information - Download Text | Download Zip
Grateful Dead
Date 1983-04-10
WVU Coliseum
Morgantown W VA

This is a 24 bit 48khz fileset

d1t01 - Samson and Delilah    /
d1t02 - Friend of the Devil
d1t03 - Me and My Uncle >
d1t04 - Mexicali Blues        /
d1t05 - Althea
d1t06 - Little Red Rooster  //
d1t07 - Tennessee Jed
d1t08 - My Brother Esau    #
d1t09 - Might As Well

d2t01 - Touch of Grey
d2t02 - Man Smart/Woman Smarter
d2t03 - Uncle John's Band >
d2t04 - Playin' in the Band >
d2t05 - drums  //
d2t06 - space >
d2t07 - The Wheel >    +
d2t08 - Playin' in the Band >
d2t09 - China Doll >
d2t10 - Sugar Magnolia
d2t11 - encore U.S. Blues    * &

Show notes:
#: Alternate first verse ( Esau sells real-estate on roller skates in LA)
* Bob: "This one's dedicated to the girl with lobotomy eyes"

Recording Notes:
Occasional drop outs throughout; probably a transfer/age issue.
There are occasional low frequency "blurts" or Phil pharts as we called them due to what was later diagnosed to be contact issues with his pickups in the new on this tour Modulus 6 string bass.
/  tape paused
// tape flip
+ slight tape drag at start (accidental pause button hit?)
& slight tape drag near end

Source Audience Recording: JVC200E Binaural headphone microphones
Location: 80 feet from stage|Right corner of SBD ~ 20' ROC
Lineage: MA CA FOB - JVC200E worn on head >> Sony TCD5M w TDK MAC-90 No Dolby
Playback: Nakamichi LX-5 ->Tascam DR-680|SD card 24/48
Processing: SD->Audacity (Windows 7)-> CDWav editor ->TLH (flac)

*********** Headphone playback is optimal for this binaural recording********

Taped by; Executive Crew: Kyle Holbrook, Olvy Johnson, Mike Yacavone
Transferred by Kyle Holbrook
============================================================================
The drive to Morgantown was loooong! Much longer than we had figured. It was like the entire drive was uphill, up some mountains then uphill some more! I think alot of tour heads avoided this show for travel or schedule reasons. The venue was a very small arena for the Dead at this time, maybe held 6,000 and I think is where the UWV basketball team played. We arrived too late to be able to have the Beyers with us but did get in the headphone mics. We wound up near the front corner of the soundboard and on the tape you can hear lots of audience chatter, I suspect due to being on the corner and occasional foot traffic.

Classic Sunday Sampson opener and the first set was off to a relatively country and classics evening. Well played if a bit lethargic compared to last night first set. The band and the crew had to drive the same distance we did! The second set was the stuff that becomes the reason why people got hooked on the Dead's music. The Uncle JOhn's Band > Playin > drumspace > Wheel > Playin > China Doll sequence was sublime Dead, hailing back to their 1974-77 era. You can almost hear the small size of the venue on the tape.

We had to hook it on out of town and back home to Syracuse so all I recall of Morgantown is it is up high in the mountains because our drive was mainly downhill for the first 90 minutes.

- - - - -

    length     expanded size    cdr  WAVE problems  fmt   ratio  filename
     6:46.787     117154604 B   cxx   --   ---xx   flac  0.7655  gd1983-04-10jvc200holbrooks1t01.flac
     8:41.053     150063404 B   cxx   --   ---xx   flac  0.7512  gd1983-04-10jvc200holbrooks1t02.flac
     3:24.053      58767404 B   cxx   --   ---xx   flac  0.7512  gd1983-04-10jvc200holbrooks1t03.flac
     4:58.813      86058284 B   cxx   --   ---xx   flac  0.7599  gd1983-04-10jvc200holbrooks1t04.flac
     7:22.427     127418924 B   cxx   --   ---xx   flac  0.7560  gd1983-04-10jvc200holbrooks1t05.flac
     8:01.360     138631724 B   cxx   --   ---xx   flac  0.7643  gd1983-04-10jvc200holbrooks1t06.flac
     8:23.200     144921644 B   cxx   --   ---xx   flac  0.7706  gd1983-04-10jvc200holbrooks1t07.flac
     4:47.333      82752044 B   cxx   --   ---xx   flac  0.7657  gd1983-04-10jvc200holbrooks1t08.flac
     4:19.223      74656394 B   cxx   --   ---xx   flac  0.7877  gd1983-04-10jvc200holbrooks1t09.flac
     6:10.520     106709804 B   cxx   --   ---xx   flac  0.7741  gd1983-04-10jvc200holbrooks2t01.flac
     6:40.360     115303724 B   cxx   --   ---xx   flac  0.7696  gd1983-04-10jvc200holbrooks2t02.flac
     8:25.480     145578284 B   cxx   --   ---xx   flac  0.7684  gd1983-04-10jvc200holbrooks2t03.flac
     9:50.213     169981484 B   cxx   --   ---xx   flac  0.7615  gd1983-04-10jvc200holbrooks2t04.flac
     6:45.213     116701484 B   cxx   --   ---xx   flac  0.7277  gd1983-04-10jvc200holbrooks2t05.flac
     4:47.067      82675244 B   cxx   --   ---xx   flac  0.6972  gd1983-04-10jvc200holbrooks2t06.flac
     6:03.293     104628524 B   cxx   --   ---xx   flac  0.7626  gd1983-04-10jvc200holbrooks2t07.flac
     4:22.573      75621164 B   cxx   --   ---xx   flac  0.7619  gd1983-04-10jvc200holbrooks2t08.flac
     4:50.093      83546924 B   cxx   --   ---xx   flac  0.7362  gd1983-04-10jvc200holbrooks2t09.flac
     8:28.293     146388524 B   cxx   --   ---xx   flac  0.7878  gd1983-04-10jvc200holbrooks2t10.flac
     5:21.677      92643116 B   cxx   --   ---xx   flac  0.7733  gd1983-04-10jvc200holbrooks2t11.flac
   128:29.034    2220202702 B                            0.7608  (20 files)



Show Checksums
ffp
gd1983-04-10jvc200holbrooks1t01.flac:8fc9b3b260ce1cc4ca026b308af669c6
gd1983-04-10jvc200holbrooks1t02.flac:1f0e894d3d856b722544709331ad587e
gd1983-04-10jvc200holbrooks1t03.flac:eef50a0648ce3d6c05375bdec16d597b
gd1983-04-10jvc200holbrooks1t04.flac:fe5475ab54babf7538dae32f4120f012
gd1983-04-10jvc200holbrooks1t05.flac:7330d34a4ed8c2bd54794f2fb0d976f8
gd1983-04-10jvc200holbrooks1t06.flac:3c1e7aa4646b6d45742d9f4d28958d38
gd1983-04-10jvc200holbrooks1t07.flac:53f098449fe7fdfe878e4baa49370165
gd1983-04-10jvc200holbrooks1t08.flac:0fba37f55d9d9f92d696f0c57cddc5e2
gd1983-04-10jvc200holbrooks1t09.flac:c4f95b3cf7cf2852c8e88c5fdedd3fdd
gd1983-04-10jvc200holbrooks2t01.flac:b2c8c820faa8694faf70ac2d9e08d62a
gd1983-04-10jvc200holbrooks2t02.flac:12b060d33af4cff3c4a699f9f5d6e9e5
gd1983-04-10jvc200holbrooks2t03.flac:e37f4e7710699ef1bae13fc33104a34e
gd1983-04-10jvc200holbrooks2t04.flac:4a33f65c46f53b244ee4375d89dd1bcc
gd1983-04-10jvc200holbrooks2t05.flac:a563887df66d640a5ae6b1ea4b3275cb
gd1983-04-10jvc200holbrooks2t06.flac:ef9dda5d394cc28a80a6710d27704c6b
gd1983-04-10jvc200holbrooks2t07.flac:7eb8de98a0e8d8def79903b17ae55186
gd1983-04-10jvc200holbrooks2t08.flac:a24d12926862257efb2eb977379f2f05
gd1983-04-10jvc200holbrooks2t09.flac:685a6cd768d87016bc723288a6285515
gd1983-04-10jvc200holbrooks2t10.flac:53de76f33e30533da637308d2e925bc3
gd1983-04-10jvc200holbrooks2t11.flac:de97aa810deb16065d0202d568068c33
flac-md5
15acf6ab0dc07c6c25b5c60920456229 *gd1983-04-10jvc200holbrooks1t01.flac
ae840cba56a04c1f2893aeb472fee74e *gd1983-04-10jvc200holbrooks1t02.flac
83a056a1add30e1a35d31ed626148d87 *gd1983-04-10jvc200holbrooks1t03.flac
c83550720c8eb25cf0d31225ebd618e0 *gd1983-04-10jvc200holbrooks1t04.flac
971107343b038cddb576d7547e8ca16c *gd1983-04-10jvc200holbrooks1t05.flac
0ed72a22686e246716ef42d6e7a7d605 *gd1983-04-10jvc200holbrooks1t06.flac
2061c9caa7c32cc30c8fcbcc08d7db3c *gd1983-04-10jvc200holbrooks1t07.flac
ba9395ce425389a97c2622c97ea027ea *gd1983-04-10jvc200holbrooks1t08.flac
0f7a703f8e502dd0356dcfa0328436ef *gd1983-04-10jvc200holbrooks1t09.flac
0794568376009db66a80ca0646146a56 *gd1983-04-10jvc200holbrooks2t01.flac
3fe0f47caa11996c1d9d956e0b116d54 *gd1983-04-10jvc200holbrooks2t02.flac
a026d749899dd5db0c36a53166c1977b *gd1983-04-10jvc200holbrooks2t03.flac
2995442e35c0091b8cc49ed4468ee2c9 *gd1983-04-10jvc200holbrooks2t04.flac
031cdb93f0b0df1301517459805b01da *gd1983-04-10jvc200holbrooks2t05.flac
fc02dd7f5cf31bb7ea56951a4411b87d *gd1983-04-10jvc200holbrooks2t06.flac
28027c95ec435516cfe02caf8d0d8400 *gd1983-04-10jvc200holbrooks2t07.flac
8552c8c9f64bbfc5a35762d04d20584e *gd1983-04-10jvc200holbrooks2t08.flac
68dc1684ad60a7b8fdf37ca7eee97250 *gd1983-04-10jvc200holbrooks2t09.flac
ff891b5f1f1c36aa8352aeebeaa71f32 *gd1983-04-10jvc200holbrooks2t10.flac
f62e70bc22d0838d13b789d9c260a31d *gd1983-04-10jvc200holbrooks2t11.flac

Comments
Add Comment
Other Sources (comments)
KG 581?s>Sony... (0) Audience Recording:... (0) Set 1 SBD > PCM > Dat x 2 >... (0) flac24; Master... (0) flac16; Master... (0) flac24; 2nd Set AUD:... (0) flac16; 2nd Set AUD:... (0) flac24; aud cassette... (0) flac16; aud cassette... (0) flac16/44.1 Source... (0)
Date User Comment