Browse Collections Artists Sources   Search Dates

Add Show    List Management    Help


Grateful Dead 04/12/83
Broome County Arena, Binghamton, NY
Comments Add Comment    Source Collectors    Add to Collection    Add to Want List    History
Source # 141632 Other Sources
Entered by Matt Vernon
Checksums ffp , flac-md5
Disc Counts 0 / 0
Media Size
Date Circulated
Date Added

04/05/2018
Source Summary flac16/44.1 Location: 80ft from Stacks Dead center First Gen AUD: Master was:Sennheiser MD421's-> Sony TCD5M (2nd in line)|TDK MA (TP,OJ,MY,KH) Marked as patched out of Jim Wise. Lineage: JVC -> Sony TCD5M Transfer: Nakamichi CR-5A->Dogstar cables-> Tascam DR-680|SD Recorded by Executive Crew: Kyle Holbrook, Olvy Johnson, Mike Yacavone, Tom Pinney Transferred by: Kyle Holbrook 
  Archive
Source Information - Download Text | Download Zip
Grateful Dead
Date 1983-04-12 TUE
Broome County Veterans Memorial Arena
Binghamton NY

This is a 16 bit 44.1khz fileset

d1t01 - Alabama Getaway
d1t02 - Greatest Story Ever Told
d1t03 - Bird Song
d1t04 - New Minglewood Blues
d1t05 - Peggy-O
d1t06 - Cassidy      //
d1t07 - Loser
d1t08 - It's All Over Now
d1t09 - Dupree's Diamond Blues
d1t10 - Let it Grow

d2t01 - Help on the Way > Slipknot! > Franklin's Tower //#
d2t02 - Lost Sailor >
d2t03 - Saint of Circumstance >
d2t04 - Terrapin Station >
d2t05 - drums   >          /
d2t06 - space   >
d2t07 - The Other One     //
d2t08 - Wharf Rat
d2t09 - Not Fade Away
d2t10 - Not Fade Away crowd chant
d2t11 - Not Fade away Bob Drums n crowd chant
d2t12 - encore Baby Blue

//  tape flip
//# Tape Swapped from 1st tape to 2nd tape
/   cut  or pause between tracks
Location: 80ft from Stacks Dead center
First Gen AUD: Master was:Sennheiser MD421's-> Sony TCD5M (2nd in line)|TDK MA (TP,OJ,MY,KH) Marked as patched out of Jim Wise.
Lineage: JVC -> Sony TCD5M
Transfer: Nakamichi CR-5A->Dogstar cables-> Tascam DR-680|SD

Recorded by Executive Crew: Kyle Holbrook, Olvy Johnson, Mike Yacavone, Tom Pinney
Transferred by: Kyle Holbrook

=============================================================================
Grateful Dead in Bingo town! My girlfriend at the time now ex wife was raised in the Binghamton area and we all thought this show had extra panache for being in her hometown. So her sisters and most of our Syracuse deadhead friends bought tickets and her family was there waiting for us as we arrived from being in VA and W VA. With one day off to get from Morgantown to Syracuse then down to Bingo the day of show as this was also close to final term papers and exams so some of us had to do some school stuff before heading to the show. Driving into town I recall seeing all the cars and deadheads playing hacky-sack and frisbee tailgating by the river across the street from the venue.

The show had great highlights, one reviewer, 'uncjhn' on dead.net claims: "It was the first Not Fade Away chant in modern times. The connection between the band and the audience was so strong. The fade away chant blew all of us away and went on to define the next 10+ years."

The Help > Slip> Franklins is a real good one musically with just a few vocal flubs. The interplay between Jerry's guitar and Phil's bass at the climax of Franklin's is superb. Lost>Saint used to be one of my favorite combinations; I really enjoy the "Sure Don't Know What I'm Going For" section and the meaning of the lyrics crossed with the manner which Bob delivered them. This rendition is all you could hope for- slow and flowing at the beginning and nice and deliberate during the beginning to Saint of Circumstance, Brent was throwing out some "rain falling down's" as they went into the tension/release segment coming out with a raucous "Never Know" section which had the crowd rockin'.

The flow of this second set was odd for this timeframe in that they then played a sixth tune, Terrapin Station, before drums. It was a beautifully sung version, Jerry's voice full and unwavering belting out "And the Whistle is Screaming" with Phil's bass bombs shaking the tiny arena.The Wharf Rat has powerful vocals with a little chuckle by Jerry at one point.

Regarding the recording- This tape was marked patched out of Jim Wise. I did not know him before then but Tom did, so we patched. Due to the family nature of our guests we were running late and could not get either mics or stand inside. IMO, his recording on the LMA along with the Charlie Miller SBD are the best of this show out there. Fortunately there were many tapers at this show and so several different sources exist. I have asked other tapers from that time if a probably duplicate source should be on the LMA and they all say might as well put it out there, every recording will have unique flaws and characteristics even if patched out duplicating the same microphones.

- - - - sbe’s at end of sets

    length     expanded size    cdr  WAVE problems  fmt   ratio  filename
     5:10.38       54773420 B   ---   --   ---xx   flac  0.6263  gd1983-04-12senn421holbrook-16s1t01.flac
     4:13.18       44671580 B   ---   --   ---xx   flac  0.6259  gd1983-04-12senn421holbrook-16s1t02.flac
     7:54.56       83745356 B   ---   --   ---xx   flac  0.5961  gd1983-04-12senn421holbrook-16s1t03.flac
     8:34.30       90740204 B   ---   --   ---xx   flac  0.6293  gd1983-04-12senn421holbrook-16s1t04.flac
     6:41.53       70861100 B   ---   --   ---xx   flac  0.6013  gd1983-04-12senn421holbrook-16s1t05.flac
     5:30.62       58357868 B   ---   --   ---xx   flac  0.6470  gd1983-04-12senn421holbrook-16s1t06.flac
     7:20.22       77667788 B   ---   --   ---xx   flac  0.6178  gd1983-04-12senn421holbrook-16s1t07.flac
     8:07.49       86022092 B   ---   --   ---xx   flac  0.6490  gd1983-04-12senn421holbrook-16s1t08.flac
     4:38.55       49168604 B   ---   --   ---xx   flac  0.6338  gd1983-04-12senn421holbrook-16s1t09.flac
    12:08.51      128539052 B   -b-   --   ---xx   flac  0.6470  gd1983-04-12senn421holbrook-16s1t10.flac
    21:38.57      229101308 B   ---   --   ---xx   flac  0.6554  gd1983-04-12senn421holbrook-16s2t01.flac
     9:47.43      103647980 B   ---   --   ---xx   flac  0.5998  gd1983-04-12senn421holbrook-16s2t02.flac
     4:34.48       48446540 B   ---   --   ---xx   flac  0.6386  gd1983-04-12senn421holbrook-16s2t03.flac
    11:03.69      117115532 B   ---   --   ---xx   flac  0.6188  gd1983-04-12senn421holbrook-16s2t04.flac
     1:36.28       17000300 B   ---   --   ---xx   flac  0.5404  gd1983-04-12senn421holbrook-16s2t05.flac
     8:13.26       87026396 B   ---   --   ---xx   flac  0.5510  gd1983-04-12senn421holbrook-16s2t06.flac
     9:31.45      100830284 B   ---   --   ---xx   flac  0.6362  gd1983-04-12senn421holbrook-16s2t07.flac
     8:53.25       94080044 B   ---   --   ---xx   flac  0.6167  gd1983-04-12senn421holbrook-16s2t08.flac
     7:00.31       74160956 B   ---   --   ---xx   flac  0.6333  gd1983-04-12senn421holbrook-16s2t09.flac
     1:41.55       17945804 B   ---   --   ---xx   flac  0.5643  gd1983-04-12senn421holbrook-16s2t10.flac
     1:18.01       13761596 B   ---   --   ---xx   flac  0.5602  gd1983-04-12senn421holbrook-16s2t11.flac
     8:01.60       84990000 B   -b-   --   ---xx   flac  0.6075  gd1983-04-12senn421holbrook-16s2t12.flac
   163:42.22     1732653804 B                            0.6229  (22 files)




Show Checksums
ffp
gd1983-04-12senn421holbrook-16s1t01.flac:5079106445c53303732a92558897d4e6
gd1983-04-12senn421holbrook-16s1t02.flac:05a663f1ea81f1d12b6978d40086086c
gd1983-04-12senn421holbrook-16s1t03.flac:8bebb2f55b4ad35afd9c4332ed76a01a
gd1983-04-12senn421holbrook-16s1t04.flac:9f0a46ad51d9b84a60e3d9b1740b2018
gd1983-04-12senn421holbrook-16s1t05.flac:efda4fc9da7891fb90fde6e2f48a2fad
gd1983-04-12senn421holbrook-16s1t06.flac:15d3d2dc392005e65a4afa11f41e8f4f
gd1983-04-12senn421holbrook-16s1t07.flac:d23d94eb159b3c479a4933bb43f507e7
gd1983-04-12senn421holbrook-16s1t08.flac:75e464aff959556baed93bc6908a13c6
gd1983-04-12senn421holbrook-16s1t09.flac:52ec969c9e1181ae2e8e5046d766e64d
gd1983-04-12senn421holbrook-16s1t10.flac:f701762af44f92c74fda66639c5380d0
gd1983-04-12senn421holbrook-16s2t01.flac:82dc2a9f4ebdf693fa7721e0fbf0a942
gd1983-04-12senn421holbrook-16s2t02.flac:2acc2b82f7d01c8cae03718cecd2d813
gd1983-04-12senn421holbrook-16s2t03.flac:6fc30822897382ec035c730fc49a61c6
gd1983-04-12senn421holbrook-16s2t04.flac:fbf1ecca0ec4a04726cc8d3d12fe133d
gd1983-04-12senn421holbrook-16s2t05.flac:2dc541809761acc0eb0d4c20d80dbc32
gd1983-04-12senn421holbrook-16s2t06.flac:72bf022c541ad9473a91cea873aa99d2
gd1983-04-12senn421holbrook-16s2t07.flac:8eff63331a165d6fd12a68d5718bf372
gd1983-04-12senn421holbrook-16s2t08.flac:db72588d79c2bbee99971f1ef8df3ab9
gd1983-04-12senn421holbrook-16s2t09.flac:61a61d2b4712aa0543debcd08cebecf3
gd1983-04-12senn421holbrook-16s2t10.flac:c0f968f05d0718167abd945a10614075
gd1983-04-12senn421holbrook-16s2t11.flac:e451061187819b46f7c6ad87cdc2760a
gd1983-04-12senn421holbrook-16s2t12.flac:f6ce606220e1395571a8829d1d09fe55
flac-md5
79d527fee79f10eece163ce7bbaa21ec *gd1983-04-12senn421holbrook-16s1t01.flac
dae84433ab0fe5ad70e243e96a5befae *gd1983-04-12senn421holbrook-16s1t02.flac
5ad2fb81cf498345856f91ada9a4641f *gd1983-04-12senn421holbrook-16s1t03.flac
ebbdf366da7629fe58415fc0f6b5ff02 *gd1983-04-12senn421holbrook-16s1t04.flac
ba71f5bd66e352fc1adf3a5fa4efbb28 *gd1983-04-12senn421holbrook-16s1t05.flac
f0ac5d3dab97156fc98fc648d076572c *gd1983-04-12senn421holbrook-16s1t06.flac
59f98b5e90b3699edeabb439c4dc2a68 *gd1983-04-12senn421holbrook-16s1t07.flac
dd927f2f99049701390539257c72d784 *gd1983-04-12senn421holbrook-16s1t08.flac
23f5c54cf0a3cf7704bb2a5f35f7e4f0 *gd1983-04-12senn421holbrook-16s1t09.flac
5a7e19b606f325db1edd726309ff15bd *gd1983-04-12senn421holbrook-16s1t10.flac
85472a22894074f9407bdb9555da3893 *gd1983-04-12senn421holbrook-16s2t01.flac
5b58db06d489b5aaceca286b293e4d91 *gd1983-04-12senn421holbrook-16s2t02.flac
aa1fa23298045258e65c492f87a2d397 *gd1983-04-12senn421holbrook-16s2t03.flac
3c2e772af18b76b4d8fd2f6caefa24d3 *gd1983-04-12senn421holbrook-16s2t04.flac
1a0d7370794bed3529d3b95e468a1f04 *gd1983-04-12senn421holbrook-16s2t05.flac
9c887d2ee89e0a902d617032cb873c3b *gd1983-04-12senn421holbrook-16s2t06.flac
84bfbdcec361e413816b06e6d9951f93 *gd1983-04-12senn421holbrook-16s2t07.flac
37412a068fceaa4b1ea07bee3541b339 *gd1983-04-12senn421holbrook-16s2t08.flac
f9f40d129b8f9fa991d6d557888a0f8d *gd1983-04-12senn421holbrook-16s2t09.flac
547ade6e1767e4add12b0a92e68115cb *gd1983-04-12senn421holbrook-16s2t10.flac
0d847934fd2eaeeb9722b79397c0305c *gd1983-04-12senn421holbrook-16s2t11.flac
3bd7c6619dd33a8ef9f1d902f117705c *gd1983-04-12senn421holbrook-16s2t12.flac

Comments
Add Comment
Other Sources (comments)
2nd set only;... (1) Jim Wise recording, FOB... (0) SBD>PCM>DAT>CDR; with aud... (1) Primary source: SBD >... (2) flac16; Recording... (0) flac16; MAC; (FOB) 2... (2) flac24; nakamichi... (0) flac16; 3 Source... (0) flac16; AUD:... (0) flac16; nakamichi... (0) flac16/48kHz;... (1) flac16; Set 2... (0) flac16; aud cassette... (0) flac24; aud cassette... (0) flac24/48 ... (0)
Date User Comment