Browse Collections Artists Sources   Search Dates

Add Show    List Management    Help


Grateful Dead 04/12/83
Broome County Arena, Binghamton, NY
Comments Add Comment    Source Collectors    Add to Collection    Add to Want List    History
Source # 141633 Other Sources
Entered by Matt Vernon
Checksums ffp , flac-md5
Disc Counts 0 / 0
Media Size
Date Circulated
Date Added

04/05/2018
Source Summary flac24/48 Location: 80ft from Stacks Dead center First Gen AUD: Master was:Sennheiser MD421's-> Sony TCD5M (2nd in line)|TDK MA (TP,OJ,MY,KH) Marked as patched out of Jim Wise. Lineage: JVC -> Sony TCD5M Transfer: Nakamichi CR-5A->Dogstar cables-> Tascam DR-680|SD Recorded by Executive Crew: Kyle Holbrook, Olvy Johnson, Mike Yacavone, Tom Pinney Transferred by: Kyle Holbrook 
  Archive
Source Information - Download Text | Download Zip
Grateful Dead
Date 1983-04-12 TUE
Broome County Veterans Memorial Arena
Binghamton NY

This is a 24 bit 48khz fileset

d1t01 - Alabama Getaway
d1t02 - Greatest Story Ever Told
d1t03 - Bird Song
d1t04 - New Minglewood Blues
d1t05 - Peggy-O
d1t06 - Cassidy      //
d1t07 - Loser
d1t08 - It's All Over Now
d1t09 - Dupree's Diamond Blues
d1t10 - Let it Grow

d2t01 - Help on the Way > Slipknot! > Franklin's Tower //#
d2t02 - Lost Sailor >
d2t03 - Saint of Circumstance >
d2t04 - Terrapin Station >
d2t05 - drums   >          /
d2t06 - space   >
d2t07 - The Other One     //
d2t08 - Wharf Rat
d2t09 - Not Fade Away
d2t10 - Not Fade Away crowd chant
d2t11 - Not Fade away Bob Drums n crowd chant
d2t12 - encore Baby Blue

//  tape flip
//# Tape Swapped from 1st tape to 2nd tape
/   cut  or pause between tracks
Location: 80ft from Stacks Dead center
First Gen AUD: Master was:Sennheiser MD421's-> Sony TCD5M (2nd in line)|TDK MA (TP,OJ,MY,KH) Marked as patched out of Jim Wise.
Lineage: JVC -> Sony TCD5M
Transfer: Nakamichi CR-5A->Dogstar cables-> Tascam DR-680|SD

Recorded by Executive Crew: Kyle Holbrook, Olvy Johnson, Mike Yacavone, Tom Pinney
Transferred by: Kyle Holbrook

=============================================================================
Grateful Dead in Bingo town! My girlfriend at the time now ex wife was raised in the Binghamton area and we all thought this show had extra panache for being in her hometown. So her sisters and most of our Syracuse deadhead friends bought tickets and her family was there waiting for us as we arrived from being in VA and W VA. With one day off to get from Morgantown to Syracuse then down to Bingo the day of show as this was also close to final term papers and exams so some of us had to do some school stuff before heading to the show. Driving into town I recall seeing all the cars and deadheads playing hacky-sack and frisbee tailgating by the river across the street from the venue.

The show had great highlights, one reviewer, 'uncjhn' on dead.net claims: "It was the first Not Fade Away chant in modern times. The connection between the band and the audience was so strong. The fade away chant blew all of us away and went on to define the next 10+ years."

The Help > Slip> Franklins is a real good one musically with just a few vocal flubs. The interplay between Jerry's guitar and Phil's bass at the climax of Franklin's is superb. Lost>Saint used to be one of my favorite combinations; I really enjoy the "Sure Don't Know What I'm Going For" section and the meaning of the lyrics crossed with the manner which Bob delivered them. This rendition is all you could hope for- slow and flowing at the beginning and nice and deliberate during the beginning to Saint of Circumstance, Brent was throwing out some "rain falling down's" as they went into the tension/release segment coming out with a raucous "Never Know" section which had the crowd rockin'.

The flow of this second set was odd for this timeframe in that they then played a sixth tune, Terrapin Station, before drums. It was a beautifully sung version, Jerry's voice full and unwavering belting out "And the Whistle is Screaming" with Phil's bass bombs shaking the tiny arena.The Wharf Rat has powerful vocals with a little chuckle by Jerry at one point.

Regarding the recording- This tape was marked patched out of Jim Wise. I did not know him before then but Tom did, so we patched. Due to the family nature of our guests we were running late and could not get either mics or stand inside. IMO, his recording on the LMA along with the Charlie Miller SBD are the best of this show out there. Fortunately there were many tapers at this show and so several different sources exist. I have asked other tapers from that time if a probably duplicate source should be on the LMA and they all say might as well put it out there, every recording will have unique flaws and characteristics even if patched out duplicating the same microphones.

- - - -

    length     expanded size    cdr  WAVE problems  fmt   ratio  filename
     5:10.520      89429804 B   cxx   --   ---xx   flac  0.7452  gd1983-04-12senn421holbrooks1t01.flac
     4:14.373      73259564 B   cxx   --   ---xx   flac  0.7445  gd1983-04-12senn421holbrooks1t02.flac
     7:53.107     136254764 B   cxx   --   ---xx   flac  0.7267  gd1983-04-12senn421holbrooks1t03.flac
     8:35.600     148492844 B   cxx   --   ---xx   flac  0.7468  gd1983-04-12senn421holbrooks1t04.flac
     6:40.907     115461164 B   cxx   --   ---xx   flac  0.7299  gd1983-04-12senn421holbrooks1t05.flac
     5:30.747      95255084 B   cxx   --   ---xx   flac  0.7578  gd1983-04-12senn421holbrooks1t06.flac
     7:20.467     126854444 B   cxx   --   ---xx   flac  0.7400  gd1983-04-12senn421holbrooks1t07.flac
     8:06.587     140137004 B   cxx   --   ---xx   flac  0.7592  gd1983-04-12senn421holbrooks1t08.flac
     4:39.853      80597804 B   cxx   --   ---xx   flac  0.7493  gd1983-04-12senn421holbrooks1t09.flac
    12:08.626     209844290 B   cxx   --   ---xx   flac  0.7577  gd1983-04-12senn421holbrooks1t10.flac
    21:38.760     374042924 B   cxx   --   ---xx   flac  0.7629  gd1983-04-12senn421holbrooks2t01.flac
     9:47.573     169221164 B   cxx   --   ---xx   flac  0.7288  gd1983-04-12senn421holbrooks2t02.flac
     4:34.640      79096364 B   cxx   --   ---xx   flac  0.7526  gd1983-04-12senn421holbrooks2t03.flac
    11:03.920     191209004 B   cxx   --   ---xx   flac  0.7406  gd1983-04-12senn421holbrooks2t04.flac
     1:36.373      27755564 B   cxx   --   ---xx   flac  0.6923  gd1983-04-12senn421holbrooks2t05.flac
     8:13.347     142083884 B   cxx   --   ---xx   flac  0.6991  gd1983-04-12senn421holbrooks2t06.flac
     9:31.600     164620844 B   cxx   --   ---xx   flac  0.7512  gd1983-04-12senn421holbrooks2t07.flac
     8:53.333     153600044 B   cxx   --   ---xx   flac  0.7394  gd1983-04-12senn421holbrooks2t08.flac
     7:00.413     121079084 B   cxx   --   ---xx   flac  0.7495  gd1983-04-12senn421holbrooks2t09.flac
     1:41.733      29299244 B   cxx   --   ---xx   flac  0.7071  gd1983-04-12senn421holbrooks2t10.flac
     1:18.013      22467884 B   cxx   --   ---xx   flac  0.7043  gd1983-04-12senn421holbrooks2t11.flac
     8:01.802     138759158 B   cxx   --   ---xx   flac  0.7334  gd1983-04-12senn421holbrooks2t12.flac
   163:42.295    2828821928 B                            0.7430  (22 files)




Show Checksums
ffp
gd1983-04-12senn421holbrooks1t01.flac:0c30a17de6726c8978c6008ef95ec204
gd1983-04-12senn421holbrooks1t02.flac:cb8e93acd2998e7bfd971cb5390bb82e
gd1983-04-12senn421holbrooks1t03.flac:b154280e4de139f74e31d8b164f4245d
gd1983-04-12senn421holbrooks1t04.flac:c9c8d65a7fa3bd3cd0d23625630a794b
gd1983-04-12senn421holbrooks1t05.flac:c56237c7425ae062416687c59657a38e
gd1983-04-12senn421holbrooks1t06.flac:160913762db5fc0ebb9f960b174f5928
gd1983-04-12senn421holbrooks1t07.flac:80f8dfcf218536255009fb82e240f68e
gd1983-04-12senn421holbrooks1t08.flac:7770c94b5195ce6e66f2227139eca276
gd1983-04-12senn421holbrooks1t09.flac:6fe6eec6c257166327740b1a439506cb
gd1983-04-12senn421holbrooks1t10.flac:4191c078424bd966d72bd242a14e6adf
gd1983-04-12senn421holbrooks2t01.flac:8fcc9c4983be55bf3456ed38561a0af9
gd1983-04-12senn421holbrooks2t02.flac:e339fea04d9c078ac8e8877abf696e8c
gd1983-04-12senn421holbrooks2t03.flac:d7cfae0dccb5831f1deffbd1653815de
gd1983-04-12senn421holbrooks2t04.flac:fa9079d351d0977bfe6bc85938535482
gd1983-04-12senn421holbrooks2t05.flac:558bc0220828c8a349499e04395618f6
gd1983-04-12senn421holbrooks2t06.flac:590761fe0d79bcd69ea30b1dbb06b36d
gd1983-04-12senn421holbrooks2t07.flac:5eeb7c455812457f39d1adc4141f3275
gd1983-04-12senn421holbrooks2t08.flac:15b7aee886f0f13efe104b405507998f
gd1983-04-12senn421holbrooks2t09.flac:1211f117355a12eaef3dac389a5ae4d9
gd1983-04-12senn421holbrooks2t10.flac:ac54bba6b0ea24be6ae2b8406c7ec1ad
gd1983-04-12senn421holbrooks2t11.flac:8d4b94dec0806dc0f7bdbacfdb8c46dd
gd1983-04-12senn421holbrooks2t12.flac:4639db87dd97cc481b7289158627838e
flac-md5
f8bdfe83f2610de822a79cc2577d95d2 *gd1983-04-12senn421holbrooks1t01.flac
9c185da5d3381abbb420c28dc81da75b *gd1983-04-12senn421holbrooks1t02.flac
6ca44bbe069c670b611503e2dd3c37e7 *gd1983-04-12senn421holbrooks1t03.flac
2ed51343a98867db460f0a5d21f4c203 *gd1983-04-12senn421holbrooks1t04.flac
f2c5c72409096b1e2a0e1314cd8e5e6c *gd1983-04-12senn421holbrooks1t05.flac
f65e32e8f1497b081a23821593c1985e *gd1983-04-12senn421holbrooks1t06.flac
be04195ee7992561f31df42f843bd3bd *gd1983-04-12senn421holbrooks1t07.flac
09c72a1bddab03adf954251497d28d9b *gd1983-04-12senn421holbrooks1t08.flac
1002b8f32b8d3df8c777b5b88b35cb80 *gd1983-04-12senn421holbrooks1t09.flac
31e771aed18688a07a10e813c6701ead *gd1983-04-12senn421holbrooks1t10.flac
6725bba5575c977db0a91ad467eab857 *gd1983-04-12senn421holbrooks2t01.flac
050b26c15c7003088395adb478a8540a *gd1983-04-12senn421holbrooks2t02.flac
672e47c3867d5db1d8425d39a546cd1c *gd1983-04-12senn421holbrooks2t03.flac
43178c90bf608f76883cf8eb15ccb3f5 *gd1983-04-12senn421holbrooks2t04.flac
66403d16a29a4915892afdb7e05a1383 *gd1983-04-12senn421holbrooks2t05.flac
8bfe1c28616ce36474e06190ad2438ab *gd1983-04-12senn421holbrooks2t06.flac
8eeed964efc2ec9e8a63ebf6a4eb99aa *gd1983-04-12senn421holbrooks2t07.flac
402040aec3843cee7d479d66f9980522 *gd1983-04-12senn421holbrooks2t08.flac
908b68a92cb28a483ec31f201d4281c9 *gd1983-04-12senn421holbrooks2t09.flac
1d9e77111a7e52d36396955587db8342 *gd1983-04-12senn421holbrooks2t10.flac
6177c5a063ede26fd991201e7e6d76b9 *gd1983-04-12senn421holbrooks2t11.flac
1734ff6d573b1ce892d15835083ae549 *gd1983-04-12senn421holbrooks2t12.flac

Comments
Add Comment
Other Sources (comments)
2nd set only;... (1) Jim Wise recording, FOB... (0) SBD>PCM>DAT>CDR; with aud... (1) Primary source: SBD >... (2) flac16; Recording... (0) flac16; MAC; (FOB) 2... (2) flac24; nakamichi... (0) flac16; 3 Source... (0) flac16; AUD:... (0) flac16; nakamichi... (0) flac16/48kHz;... (1) flac16; Set 2... (0) flac16; aud cassette... (0) flac24; aud cassette... (0) flac16/44.1 ... (0)
Date User Comment