Browse Collections Artists Sources   Search Dates

Add Show    List Management    Help


Grateful Dead 04/13/83
Patrick Gymnasium, U of Vermont, Burlington, VT
Comments Add Comment    Source Collectors    Add to Collection    Add to Want List    History
Source # 141636 Other Sources
Entered by Matt Vernon
Checksums ffp , flac-md5
Disc Counts 0 / 0
Media Size
Date Circulated
Date Added

04/06/2018
Source Summary flac16/44.1 Location: 50ft from Right Stack about row 17 aisle seats First Gen AUD: Master was: 1 Sennheiser 441 in middle 2 Sennheiser 421's PAS -> Uher ? -> Sony TCD5M (2nd in line)|TDK MA (OJ,KH) Lineage: JVC -> Sony TCD5M Transfer: Nakamichi CR-5A->Dogstar cables-> Tascam DR-680|SD Recorded By: Tom Pinney & Kyle Holbrook Transferred by: Kyle Holbrook 
  Archive
Source Information - Download Text | Download Zip
Grateful Dead
Date 1983-04-13
Patrick Gymnasium - University of Vermont
Burlington VT

This is a 16 bit 44.1khz fileset

set 1
d1t01 - Jack Straw
d1t02 - They Love Each Other
d1t03 - Beat It On Down The Line
d1t04 - West L.A. Fadeaway
d1t05 - Mama Tried >
d1t06 - Cumberland Blues
d1t07 - Ramble On Rose      /
d1t08 - Far From Me
d1t09 - Brother Esau
d1t10 - Might As Well

set 2
d2t01 - Scarlet Begonias > Fire On The Mountain
d2t02 - Estimated Prophet >
d2t03 - Eyes Of The World >   // /
d2t04 - Maybe You Know >
d2t05 - drums >               //^
d2t06 - space >
d2t07 - Morning Dew >
d2t08 - Throwing Stones >
d2t09 - Good Lovin'           // *
d2t10 - encore Touch Of Grey


Recording Information
Both tapes had an odd underlying intermittent but present for long time periods noise, like a fuzz on it. I also have a first gen made in 1983 which had the same fuzzy tone so I guess it was either the master tape or the PA.

We were directly on axis with the Right stack which was placed on the stage.

// /    Cut  at end,flip; missed ~90 seconds of music;spliced end of Eyes then uncut into Maybe You know
//^     cut for lead deck flip, didn't start until space

// *    tape swap

Location: 50ft from Right Stack about row 17 aisle seats
First Gen AUD: Master was: 1 Sennheiser 441 in middle 2 Sennheiser 421's PAS -> Uher ? -> Sony TCD5M
(2nd in line)|TDK MA (OJ,KH)
Lineage: JVC -> Sony TCD5M
Transfer: Nakamichi CR-5A->Dogstar cables-> Tascam DR-680|SD

Recorded By: Tom Pinney & Kyle Holbrook
Transferred by: Kyle Holbrook

__________________________________________________________________________
We had no plans to attend being we were told it was student tickets only. But the morning of this show I had a class cancel and Olvy and I figured we would go try to get tickets. The drive from Syracuse must have taken 6+ hours. We showed up about 4 PM in a parking lot which was roaring. NO tickets. Anywhere. We found out about the Healey lecture but decided to stay and keep looking. About 20 minutes before showtime a  guy shows up and when I asked if he had extras he said No, then turned around and asked how much would we pay? Then told us they were student tickets, he wasn't really into the Dead, we offered $40 each which would have been MUCH more than I'd ever paid for a GD ticket up until that point. He accepted and we wound up with the two tickets pictured in the LMA jpg window.

Tom drove to the show ahead of us as he was going to Orono and Providence with his Maine Buddies, and the UVM tickets were student only supposedly so we chose not to go with him. But we gave him our Sony TCD5-M and mics. Then at the very last minute Olvy an I decided to drive from Syracuse to Burlington as mentioned above. Olvy found Tom during first set up near the Right stacks as my ticket was in the bleachers and I didn't get up there until second set. Tom says the guy we were patched out of was named John who used an Uher Cassette deck with 2 Sennheiser 421's and one Sennheiser 441 in the middle into a small mixer. We have it written down as a Yamaha mixer but no no historical proof exists that Yamaha made a small 3 channel mixer in the early 80's, Tom and I figure it must have been a Nakamichi MX100. This mic configuration mixing three to two channels on the fly, may be the cause of that underlying fuzziness, a bit of phase shift perhaps.

- - - - sbe’s at end of sets

    length     expanded size    cdr  WAVE problems  fmt   ratio  filename
     6:26.55       68219804 B   ---   --   ---xx   flac  0.5555  gd1983-04-13senn421holbrook-16s1t01.flac
     7:48.44       82658732 B   ---   --   ---xx   flac  0.6031  gd1983-04-13senn421holbrook-16s1t02.flac
     3:47.69       40205132 B   ---   --   ---xx   flac  0.6200  gd1983-04-13senn421holbrook-16s1t03.flac
     8:02.21       85074236 B   ---   --   ---xx   flac  0.6117  gd1983-04-13senn421holbrook-16s1t04.flac
     2:39.15       28082924 B   ---   --   ---xx   flac  0.6037  gd1983-04-13senn421holbrook-16s1t05.flac
     6:45.27       71505548 B   ---   --   ---xx   flac  0.6048  gd1983-04-13senn421holbrook-16s1t06.flac
     7:17.04       77096252 B   ---   --   ---xx   flac  0.5971  gd1983-04-13senn421holbrook-16s1t07.flac
     4:26.72       47091788 B   ---   --   ---xx   flac  0.5996  gd1983-04-13senn421holbrook-16s1t08.flac
     6:26.28       68156300 B   ---   --   ---xx   flac  0.5733  gd1983-04-13senn421holbrook-16s1t09.flac
     4:37.51       48982580 B   -b-   --   ---xx   flac  0.6163  gd1983-04-13senn421holbrook-16s1t10.flac
    27:17.50      288884444 B   ---   --   ---xx   flac  0.5929  gd1983-04-13senn421holbrook-16s2t01.flac
    11:37.32      123026108 B   ---   --   ---xx   flac  0.5781  gd1983-04-13senn421holbrook-16s2t02.flac
     9:12.20       97419884 B   ---   --   ---xx   flac  0.5997  gd1983-04-13senn421holbrook-16s2t03.flac
     3:50.71       40739036 B   ---   --   ---xx   flac  0.6165  gd1983-04-13senn421holbrook-16s2t04.flac
     0:59.25       10466444 B   ---   --   ---xx   flac  0.5588  gd1983-04-13senn421holbrook-16s2t05.flac
     7:29.46       79311836 B   ---   --   ---xx   flac  0.4992  gd1983-04-13senn421holbrook-16s2t06.flac
    11:25.37      120921068 B   ---   --   ---xx   flac  0.5501  gd1983-04-13senn421holbrook-16s2t07.flac
     8:47.61       93106316 B   ---   --   ---xx   flac  0.5482  gd1983-04-13senn421holbrook-16s2t08.flac
     8:48.67       93296828 B   ---   --   ---xx   flac  0.5773  gd1983-04-13senn421holbrook-16s2t09.flac
     6:47.73       71967556 B   -b-   --   ---xx   flac  0.6164  gd1983-04-13senn421holbrook-16s2t10.flac
   154:35.43     1636212816 B                            0.5840  (20 files)






Show Checksums
ffp
gd1983-04-13senn421holbrook-16s1t01.flac:71ab4d88454338d1437cb389c53fc45b
gd1983-04-13senn421holbrook-16s1t02.flac:db9b979b6ec249a71a898d9b95f48c9d
gd1983-04-13senn421holbrook-16s1t03.flac:331ff2cdab4878d1254801e4dee0dbb4
gd1983-04-13senn421holbrook-16s1t04.flac:89efec745c30b5c38018bef317a01b48
gd1983-04-13senn421holbrook-16s1t05.flac:421062504554ae99172068dd701db8dd
gd1983-04-13senn421holbrook-16s1t06.flac:db4a9423460fcf7ffb182293fce6998d
gd1983-04-13senn421holbrook-16s1t07.flac:0cb13c0d287ba76cd700dd4627864bd8
gd1983-04-13senn421holbrook-16s1t08.flac:ca7e8990abe0f027ebec7ef741543fd6
gd1983-04-13senn421holbrook-16s1t09.flac:3938ee442e9969e4aa10de7330258724
gd1983-04-13senn421holbrook-16s1t10.flac:60de6d56ac8f83bcc4909f88f1ec2eed
gd1983-04-13senn421holbrook-16s2t01.flac:3ba28454b26b47f9959cebe36e4cdbe1
gd1983-04-13senn421holbrook-16s2t02.flac:20cd5c5a3c32d2e3c773f03d4b41e176
gd1983-04-13senn421holbrook-16s2t03.flac:6f084aa54fe2ffda3ad5463ee9b866da
gd1983-04-13senn421holbrook-16s2t04.flac:a562d15c39cd40a25ac7455ea3802f9e
gd1983-04-13senn421holbrook-16s2t05.flac:de9045c58a24bbd530bbf30ed706f1a1
gd1983-04-13senn421holbrook-16s2t06.flac:6b188ca062c0a398679467310d0872c3
gd1983-04-13senn421holbrook-16s2t07.flac:138d8480eca0aa9e5b59b730cc14c4d3
gd1983-04-13senn421holbrook-16s2t08.flac:0f746b4f6d0a44f7c0b47c6e9d5d366c
gd1983-04-13senn421holbrook-16s2t09.flac:4964e341ce5b3ce20a6f422ea19daef1
gd1983-04-13senn421holbrook-16s2t10.flac:091c1fcfd9ebfe43687ee813445f755b
flac-md5
af08b619bc0dd9cc22449029ba897051 *gd1983-04-13senn421holbrook-16s1t01.flac
b198ca5f8e0102f23ebf97e3cc22dc3c *gd1983-04-13senn421holbrook-16s1t02.flac
c8e2f2d6fc56afce86f4e6a9c94bd5fb *gd1983-04-13senn421holbrook-16s1t03.flac
eb31d4d5ee416d55d22f2f92534d933a *gd1983-04-13senn421holbrook-16s1t04.flac
aa278ef4d8d30eaa1bb1d1dbcb5a6abd *gd1983-04-13senn421holbrook-16s1t05.flac
dfd4e05b94bd1a1d16de7649883e2560 *gd1983-04-13senn421holbrook-16s1t06.flac
c99fd0066a45f9107f4fbbbe08090d0e *gd1983-04-13senn421holbrook-16s1t07.flac
9a3e020d7ced96a7ffed880752f83ef5 *gd1983-04-13senn421holbrook-16s1t08.flac
7207b3fec474e5b7f2f5cfe68ac9ff0d *gd1983-04-13senn421holbrook-16s1t09.flac
2a7883f5a091306ad85595aff5d2fb73 *gd1983-04-13senn421holbrook-16s1t10.flac
470e2797081ac308b5322de4505002b6 *gd1983-04-13senn421holbrook-16s2t01.flac
355385037c11dcc2ebd285559fda7b3a *gd1983-04-13senn421holbrook-16s2t02.flac
8f6c65c6f457f8fd78636c7f4776db88 *gd1983-04-13senn421holbrook-16s2t03.flac
3ed2fdca48d7669b8080973a405e1c54 *gd1983-04-13senn421holbrook-16s2t04.flac
694eae23c3412f174330d6e7a92bd220 *gd1983-04-13senn421holbrook-16s2t05.flac
fc89c8569abf0527937745d33b1d58df *gd1983-04-13senn421holbrook-16s2t06.flac
af17481b03f8a838e757333e40bc1adb *gd1983-04-13senn421holbrook-16s2t07.flac
d949fcb59285d1ec93fbd72cc4061ffe *gd1983-04-13senn421holbrook-16s2t08.flac
981bf88cb9d5e1d41a5495a8f794df46 *gd1983-04-13senn421holbrook-16s2t09.flac
4daf039c76c52242122cd95160c82fbd *gd1983-04-13senn421holbrook-16s2t10.flac

Comments
Add Comment
Other Sources (comments)
MSC -> Reel (3 3/4 ips) ->... (12) Source: MAC(FOB Sennheiser... (0) SDB>>CM>>C>>DAT>>CDR via... (2) flac16; AUD Source:... (4) flac 16 Source: 3... (1) flac16; Matrix by... (0) flac24; AUD: 2x... (1) flac16; AUD: 2x... (1) flac24; Updated... (1) flac16/48kHz; Set 2... (0) flac16; aud cassette... (0) flac24; aud cassette... (0) flac24/48 ... (0)
Date User Comment