Browse Collections Artists Sources   Search Dates

Add Show    List Management    Help


Grateful Dead 04/13/83
Patrick Gymnasium, U of Vermont, Burlington, VT
Comments Add Comment    Source Collectors    Add to Collection    Add to Want List    History
Source # 141637 Other Sources
Entered by Matt Vernon
Checksums ffp , flac-md5
Disc Counts 0 / 0
Media Size
Date Circulated
Date Added

04/06/2018
Source Summary flac24/48 Location: 50ft from Right Stack about row 17 aisle seats First Gen AUD: Master was: 1 Sennheiser 441 in middle 2 Sennheiser 421's PAS -> Uher ? -> Sony TCD5M (2nd in line)|TDK MA (OJ,KH) Lineage: JVC -> Sony TCD5M Transfer: Nakamichi CR-5A->Dogstar cables-> Tascam DR-680|SD Recorded By: Tom Pinney & Kyle Holbrook Transferred by: Kyle Holbrook 
  Archive
Source Information - Download Text | Download Zip
Grateful Dead
Date 1983-04-13
Patrick Gymnasium - University of Vermont
Burlington VT

This is a 24 bit 48khz fileset

set 1
d1t01 - Jack Straw
d1t02 - They Love Each Other
d1t03 - Beat It On Down The Line
d1t04 - West L.A. Fadeaway
d1t05 - Mama Tried >
d1t06 - Cumberland Blues
d1t07 - Ramble On Rose      /
d1t08 - Far From Me
d1t09 - Brother Esau
d1t10 - Might As Well

set 2
d2t01 - Scarlet Begonias > Fire On The Mountain
d2t02 - Estimated Prophet >
d2t03 - Eyes Of The World >   // /
d2t04 - Maybe You Know >
d2t05 - drums >               //^
d2t06 - space >
d2t07 - Morning Dew >
d2t08 - Throwing Stones >
d2t09 - Good Lovin'           // *
d2t10 - encore Touch Of Grey


Recording Information
Both tapes had an odd underlying intermittent but present for long time periods noise, like a fuzz on it. I also have a first gen made in 1983 which had the same fuzzy tone so I guess it was either the master tape or the PA.

We were directly on axis with the Right stack which was placed on the stage.

// /    Cut  at end,flip; missed ~90 seconds of music;spliced end of Eyes             then uncut into Maybe You know
//^     cut for lead deck flip, didn't start until space

// *    tape swap

Location: 50ft from Right Stack about row 17 aisle seats
First Gen AUD: Master was: 1 Sennheiser 441 in middle 2 Sennheiser 421's PAS -> Uher ? -> Sony TCD5M (2nd in line)|TDK MA (OJ,KH)
Lineage: JVC -> Sony TCD5M
Transfer: Nakamichi CR-5A->Dogstar cables-> Tascam DR-680|SD

Recorded By: Tom Pinney & Kyle Holbrook
Transferred by: Kyle Holbrook

__________________________________________________________________________
We had no plans to attend being we were told it was student tickets only. But the morning of this show I had a class cancel and Olvy and I figured we would go try to get tickets. The drive from Syracuse must have taken 6+ hours. We showed up about 4 PM in a parking lot which was roaring. NO tickets. Anywhere. We found out about the Healey lecture but decided to stay and keep looking. About 20 minutes before showtime a  guy shows up and when I asked if he had extras he said No, then turned around and asked how much would we pay? Then told us they were student tickets, he wasn't really into the Dead, we offered $40 each which would have been MUCH more than I'd ever paid for a GD ticket up until that point. He accepted and we wound up with the two tickets pictured in the LMA jpg window.

Tom drove to the show ahead of us as he was going to Orono and Providence with his Maine Buddies, and the UVM tickets were student only supposedly so we chose not to go with him. But we gave him our Sony TCD5-M and mics. Then at the very last minute Olvy an I decided to drive from Syracuse to Burlington as mentioned above. Olvy found Tom during first set up near the Right stacks as my ticket was in the bleachers and I didn't get up there until second set. Tom says the guy we were patched out of was named John who used an Uher Cassette deck with 2 Sennheiser 421's and one Sennheiser 441 in the middle into a small mixer. We have it written down as a Yamaha mixer but no no historical proof exists that Yamaha made a small 3 channel mixer in the early 80's, Tom and I figure it must have been a Nakamichi MX100. This mic configuration mixing three to two channels on the fly, may be the cause of that underlying fuzziness, a bit of phase shift perhaps.

- - -
    length     expanded size    cdr  WAVE problems  fmt   ratio  filename
     6:26.733     111379244 B   cxx   --   ---xx   flac  0.7018  gd1983-04-13senn421holbrooks1t01.flac
     7:48.587     134953004 B   cxx   --   ---xx   flac  0.7312  gd1983-04-13senn421holbrooks1t02.flac
     3:47.920      65641004 B   cxx   --   ---xx   flac  0.7418  gd1983-04-13senn421holbrooks1t03.flac
     8:02.280     138896684 B   cxx   --   ---xx   flac  0.7365  gd1983-04-13senn421holbrooks1t04.flac
     2:39.200      45849644 B   cxx   --   ---xx   flac  0.7324  gd1983-04-13senn421holbrooks1t05.flac
     6:45.360     116743724 B   cxx   --   ---xx   flac  0.7329  gd1983-04-13senn421holbrooks1t06.flac
     7:17.053     125871404 B   cxx   --   ---xx   flac  0.7279  gd1983-04-13senn421holbrooks1t07.flac
     4:26.960      76884524 B   cxx   --   ---xx   flac  0.7293  gd1983-04-13senn421holbrooks1t08.flac
     6:26.373     111275564 B   cxx   --   ---xx   flac  0.7132  gd1983-04-13senn421holbrooks1t09.flac
     4:37.679      79971530 B   cxx   --   ---xx   flac  0.7397  gd1983-04-13senn421holbrooks1t10.flac
    27:17.667     471648044 B   cxx   --   ---xx   flac  0.7247  gd1983-04-13senn421holbrooks2t01.flac
    11:37.427     200858924 B   cxx   --   ---xx   flac  0.7157  gd1983-04-13senn421holbrooks2t02.flac
     9:12.267     159052844 B   cxx   --   ---xx   flac  0.7291  gd1983-04-13senn421holbrooks2t03.flac
     3:50.947      66512684 B   cxx   --   ---xx   flac  0.7394  gd1983-04-13senn421holbrooks2t04.flac
     0:59.333      17088044 B   cxx   --   ---xx   flac  0.7037  gd1983-04-13senn421holbrooks2t05.flac
     7:29.613     129488684 B   cxx   --   ---xx   flac  0.6673  gd1983-04-13senn421holbrooks2t06.flac
    11:25.493     197422124 B   cxx   --   ---xx   flac  0.6983  gd1983-04-13senn421holbrooks2t07.flac
     8:47.813     152010284 B   cxx   --   ---xx   flac  0.6965  gd1983-04-13senn421holbrooks2t08.flac
     8:48.893     152321324 B   cxx   --   ---xx   flac  0.7147  gd1983-04-13senn421holbrooks2t09.flac
     6:47.979     117498020 B   cxx   --   ---xx   flac  0.7393  gd1983-04-13senn421holbrooks2t10.flac
   154:35.578    2671367302 B                            0.7194  (20 files)






Show Checksums
ffp
gd1983-04-13senn421holbrooks1t01.flac:c73b716f78385abfef7462004ab70616
gd1983-04-13senn421holbrooks1t02.flac:d872b8891127471a63916de4370f6aa6
gd1983-04-13senn421holbrooks1t03.flac:178b8166c6d369b80e6b43f6318db2f7
gd1983-04-13senn421holbrooks1t04.flac:309a099e0a6ca95d79916cbe955d0f08
gd1983-04-13senn421holbrooks1t05.flac:0a1aeb3806f2efb8b1a7e51be4e6e4a2
gd1983-04-13senn421holbrooks1t06.flac:ee0a173a4bb290b00da7a808ad3dbdd1
gd1983-04-13senn421holbrooks1t07.flac:ddf65c501b604ee4cb01815b0bf5eebe
gd1983-04-13senn421holbrooks1t08.flac:72c60c456f93aed1ca30177c5c7e5701
gd1983-04-13senn421holbrooks1t09.flac:fafb39e52fa4380ba0c0a9bfa2ad0f57
gd1983-04-13senn421holbrooks1t10.flac:adcb81314e51cdd54b89ea399a193c5d
gd1983-04-13senn421holbrooks2t01.flac:654a7207686b189055fa53106a02a9a9
gd1983-04-13senn421holbrooks2t02.flac:1d9fa4d5f0ef40ad8d10c42e001bb873
gd1983-04-13senn421holbrooks2t03.flac:b5dbbdb4e31799c5271265464d326f3d
gd1983-04-13senn421holbrooks2t04.flac:939651b6e2e5cdbd45341c360d19b7fd
gd1983-04-13senn421holbrooks2t05.flac:d78a26a4885a319d0541a87ead3a7302
gd1983-04-13senn421holbrooks2t06.flac:49abd9c0fa58daa81082dd2bf01e1006
gd1983-04-13senn421holbrooks2t07.flac:6bd7d64c1c2e9b798a1de1a3d2b25827
gd1983-04-13senn421holbrooks2t08.flac:55dfd5ada9163d068744dc19e3a7b13f
gd1983-04-13senn421holbrooks2t09.flac:857a7eebb8f930280e74b6075e0f9461
gd1983-04-13senn421holbrooks2t10.flac:f24e7174126a00f950e2b9fc122e75f5
flac-md5
803ca67f1cca4ee1584ec46e0ff66a04 *gd1983-04-13senn421holbrooks1t01.flac
688200399a32a755ba347e63dd887233 *gd1983-04-13senn421holbrooks1t02.flac
c843a4ad41297c5fd2c1cbc02479ea95 *gd1983-04-13senn421holbrooks1t03.flac
ce0cfd032cbd8d4798883b1e7052975d *gd1983-04-13senn421holbrooks1t04.flac
a0f7ea2433e83929e4f8bad9a7db0667 *gd1983-04-13senn421holbrooks1t05.flac
14c7e8d94ea8d60db6bd5cbaa731cf99 *gd1983-04-13senn421holbrooks1t06.flac
de65063b1350fe74b4b262810d6ab0d7 *gd1983-04-13senn421holbrooks1t07.flac
acce1f42821d3f2788e5e57851ea81c6 *gd1983-04-13senn421holbrooks1t08.flac
3f0eeaae7a7f47941f64b518e0b0f8f5 *gd1983-04-13senn421holbrooks1t09.flac
dcad1702a74048ad43234a1c0ba2a205 *gd1983-04-13senn421holbrooks1t10.flac
569b2d7396673e39b851a573dfdff099 *gd1983-04-13senn421holbrooks2t01.flac
6174463c86364deeeeef10608655c9e7 *gd1983-04-13senn421holbrooks2t02.flac
956b1b938734e255f7f7e508d6978197 *gd1983-04-13senn421holbrooks2t03.flac
6cd28de745ed767eb0ab2432e82b9a74 *gd1983-04-13senn421holbrooks2t04.flac
053c1999693c93349df87186cd6057a5 *gd1983-04-13senn421holbrooks2t05.flac
b17fa252307dc7f99142d9b81a1b3c8c *gd1983-04-13senn421holbrooks2t06.flac
f7c23829a02b3d8074f454f0da8bf752 *gd1983-04-13senn421holbrooks2t07.flac
52a70f2c8da0ded6204eb61449e1ada0 *gd1983-04-13senn421holbrooks2t08.flac
f52d0d3204f1dc3e2779ecce191c8134 *gd1983-04-13senn421holbrooks2t09.flac
1a3040200509360b0b69e9dbc1f3c0a5 *gd1983-04-13senn421holbrooks2t10.flac

Comments
Add Comment
Other Sources (comments)
MSC -> Reel (3 3/4 ips) ->... (12) Source: MAC(FOB Sennheiser... (0) SDB>>CM>>C>>DAT>>CDR via... (2) flac16; AUD Source:... (4) flac 16 Source: 3... (1) flac16; Matrix by... (0) flac24; AUD: 2x... (1) flac16; AUD: 2x... (1) flac24; Updated... (1) flac16/48kHz; Set 2... (0) flac16; aud cassette... (0) flac24; aud cassette... (0) flac16/44.1... (0)
Date User Comment