Browse Collections Artists Sources   Search Dates

Add Show    List Management    Help


Grateful Dead 04/15/83
Community War Memorial Auditorium, Rochester, NY
Comments Add Comment    Source Collectors    Add to Collection    Add to Want List    History
Source # 141638 Other Sources
Entered by Matt Vernon
Checksums ffp , flac-md5
Disc Counts 0 / 0
Media Size
Date Circulated
Date Added

04/06/2018
Source Summary flac16/44.1 Recording Information Master AUD: Beyer M201 hypercardiod XY 65ft from stacks ->Sony TCD5M|TDK MA 90 No Dolby Transfer: Nakamichi CR-5A->Dogstar cables-> Tascam DR-680|SD Recorded By: Executive Crew- KAH, MY, OJ, assist to TP 
  Archive
Source Information - Download Text | Download Zip
Grateful Dead
Date 1983-04-15
Community War Memorial Auditorium
Rochester NY

This is a 16 bit 44.1khz fileset

Set 1
d1t01 - Shakedown Street
d1t02 - My Brother Esau
d1t03 - Brown Eyed Women
d1t04 - Little Red Rooster /
d1t05 - Dire Wolf
d1t06 - Lazy Lightning -> Supplication >
d1t07 - Deal

Set 2
d2t01 - Feel Like A Stranger /^
d2t02 - Samson And Delilah
d2t03 - Ship Of Fools
d2t04 - Maybe You Know
d2t05 - He's Gone ->
d2t06 - Bob Star ->
d2t07 - Drums -> /
d2t08 - Space ->
d2t09 - Throwing Stones ->
d2t10 - Not Fade Away ->
d2t11 - Goin' Down The Road Feeling Bad ->
d2t12 - Around And Around -> /
d2t13 - Johnny B. Goode /^^
d2t14 - encore It's All Over Now, Baby Blue

Recording notes
* ~7:00 brief drop outs
/  tape flip
/^ tape swap from tape 1 to 2
/^^tape swap from 2 to 1
Olvy had the idea that he wanted to record ALL of the drums and space so he decided to keep tape 1 side B in the deck to start set 2. Fortunate were we as many tapers had cuts.
A bit of tape hiss throughout, no dolby added some noise to these old tapes.


Recording Information
Master AUD: Beyer M201 hypercardiod XY 65ft from stacks ->Sony TCD5M|TDK MA             90 No Dolby
Transfer: Nakamichi CR-5A->Dogstar cables-> Tascam DR-680|SD
Recorded By: Executive Crew- KAH, MY, OJ, assist to TP
===========================================================================
The Rochester Community War Memorial Auditorium was a venue the Dead played at several times. It was where I saw my second ever GD show, the one where I "got it" September 2, 1980. Thanks to Rick Cantor it was not my last! To return there with recording gear excited me to no end and as Rochester is about a 90 minute drive from Syracuse many of us made the trip. For some reason Tom and I were late but Olvy, Mike and others had set up in the sweet spot, about 65 feet from stage. The venue was all GA back then and the floor was covered with cheap fiberboard commonly in use to cover the ice of the hockey floor which was down as it was still hockey season for the minor league team The Rochester Americans. It was hot and stifling in the arena and we stayed as close to the floor as possible; I recall some folks laying down between sets to cool off.

The set list is classic 83 Dead. First Set Shakedown and Little Red Rooster were atypically lengthy versions while the Lazy Lightning > Supplication was inspired. Brent throws down some lyrics and organ action for Rooster to the delight of the crowd. While relatively short the set was satisfying with excellent highlights. Jerry's mic must have gone out at the start of Brown Eyed Women, Jerry and Phil play some sweet licks while it is out and the crowd gets revved up when the crew gets it back working.Brent added to the Stranger second set opener with smokey "crazy night" scat singing.Jerry delivered Ship Of Fools with dripping vocals and sweet guitar.Maybe You Know (on the tape case as: Baby You Know How I Feel) was the band putting up with Brent's need to sing originals which ultimately did wind up with 2-3 top notch tunes (Tons of Steel IMO); however this was not one of them. Still fun for this show and I think the 3rd on that East Coast run.

The He's Gone has some downright pretty vocal harmonies and is just a killer version. This morphs into this odd arrangement of Bob rapping now named Bobstar which according to deadbase was only played 3 times.We were able to record all of the drums and space following Olvy's tape flip maneuvers. The Throwing Stones had the early Jerry leads ending without the Bobby screams. The GDTRFB is one of my favorites ever; a copy of this tape saw a lot of rotation in my playback for several years.

This was one long second set, including encore it was 1 hour 45 minutes.

- - - - sbe on last track

    length     expanded size    cdr  WAVE problems  fmt   ratio  filename
    14:47.20      156513884 B   ---   --   ---xx   flac  0.6190  gd1983-04-15beyerm201-16s1t01.flac
     7:15.08       76752860 B   ---   --   ---xx   flac  0.5977  gd1983-04-15beyerm201-16s1t02.flac
     7:05.12       74998268 B   ---   --   ---xx   flac  0.6043  gd1983-04-15beyerm201-16s1t03.flac
     9:11.51       97316396 B   ---   --   ---xx   flac  0.6253  gd1983-04-15beyerm201-16s1t04.flac
     4:47.58       50763260 B   ---   --   ---xx   flac  0.5984  gd1983-04-15beyerm201-16s1t05.flac
    10:20.05      109379804 B   ---   --   ---xx   flac  0.6328  gd1983-04-15beyerm201-16s1t06.flac
     7:45.23       82080140 B   ---   --   ---xx   flac  0.6382  gd1983-04-15beyerm201-16s1t07.flac
    10:46.23      114008540 B   ---   --   ---xx   flac  0.6293  gd1983-04-15beyerm201-16s2t01.flac
     8:51.68       93828380 B   ---   --   ---xx   flac  0.6273  gd1983-04-15beyerm201-16s2t02.flac
     8:29.35       89869964 B   ---   --   ---xx   flac  0.5865  gd1983-04-15beyerm201-16s2t03.flac
     5:10.02       54688748 B   ---   --   ---xx   flac  0.6455  gd1983-04-15beyerm201-16s2t04.flac
    12:32.60      132793964 B   ---   --   ---xx   flac  0.5884  gd1983-04-15beyerm201-16s2t05.flac
     2:20.57       24830108 B   ---   --   ---xx   flac  0.6005  gd1983-04-15beyerm201-16s2t06.flac
     3:43.61       39480716 B   ---   --   ---xx   flac  0.6003  gd1983-04-15beyerm201-16s2t07.flac
    13:45.51      145649996 B   ---   --   ---xx   flac  0.5518  gd1983-04-15beyerm201-16s2t08.flac
     9:18.27       98494748 B   ---   --   ---xx   flac  0.6089  gd1983-04-15beyerm201-16s2t09.flac
     6:09.38       65181020 B   ---   --   ---xx   flac  0.6286  gd1983-04-15beyerm201-16s2t10.flac
     6:24.66       67892876 B   ---   --   ---xx   flac  0.6406  gd1983-04-15beyerm201-16s2t11.flac
     3:53.52       41223548 B   ---   --   ---xx   flac  0.6291  gd1983-04-15beyerm201-16s2t12.flac
     4:27.61       47242316 B   ---   --   ---xx   flac  0.6423  gd1983-04-15beyerm201-16s2t13.flac
     7:22.63       78117464 B   -b-   --   ---xx   flac  0.6063  gd1983-04-15beyerm201-16s2t14.flac
   164:30.16     1741107000 B                            0.6115  (21 files)



Show Checksums
ffp
gd1983-04-15beyerm201-16s1t01.flac:5186497ed6714ebdd7e1fca9859c3ee8
gd1983-04-15beyerm201-16s1t02.flac:bca3ed00b67190706aab31658a61bd62
gd1983-04-15beyerm201-16s1t03.flac:fc7946874107db9fd42fc3c4a31dcb31
gd1983-04-15beyerm201-16s1t04.flac:68a18cb7cd882518607a9fd7faadda03
gd1983-04-15beyerm201-16s1t05.flac:8da1344614bb7e934c742f8330cf3496
gd1983-04-15beyerm201-16s1t06.flac:62000e647b8035c03f078bb4601f398e
gd1983-04-15beyerm201-16s1t07.flac:3004081630bea4d710d38a9ab3cef6ba
gd1983-04-15beyerm201-16s2t01.flac:0d498be2cab5cdd8c41a0aabe0bace8c
gd1983-04-15beyerm201-16s2t02.flac:f1f04f4b8a1df24ad68e5ea8ac81bcb8
gd1983-04-15beyerm201-16s2t03.flac:95644c9017ceedf2304f6bc1b9c7acc2
gd1983-04-15beyerm201-16s2t04.flac:770d445bd77ce6b61f077200aa719510
gd1983-04-15beyerm201-16s2t05.flac:a62f7ea58ffa716b7375fabf99fc33d5
gd1983-04-15beyerm201-16s2t06.flac:e740244b819ac8c34f1c446de699bd7d
gd1983-04-15beyerm201-16s2t07.flac:d449166e5fd3d19049e261e7abe81a5c
gd1983-04-15beyerm201-16s2t08.flac:2e726500874c54d904dd8e012e036148
gd1983-04-15beyerm201-16s2t09.flac:8c3b53da1904e81d68e13509e22fa542
gd1983-04-15beyerm201-16s2t10.flac:ee09dba9775de63c2da10361eeb50a1b
gd1983-04-15beyerm201-16s2t11.flac:40a235cc70867d6a75af6636e332213b
gd1983-04-15beyerm201-16s2t12.flac:8acb2260767868a663271ea211515990
gd1983-04-15beyerm201-16s2t13.flac:196146f3f6c47c44f46306e77986e267
gd1983-04-15beyerm201-16s2t14.flac:4743c1210c9ff722fe7f049c7d7e4bb5
flac-md5
84de7ebf4b595eea007ea48e99a01193 *gd1983-04-15beyerm201-16s1t01.flac
5f0d4bc454e15b209d919f53a3f466a8 *gd1983-04-15beyerm201-16s1t02.flac
d5f33539181a975391ba5930f9660c26 *gd1983-04-15beyerm201-16s1t03.flac
fa20344ad8e890f7a1c6aae2e26b1b11 *gd1983-04-15beyerm201-16s1t04.flac
e22446ff355aec4e9abd1961b07c8061 *gd1983-04-15beyerm201-16s1t05.flac
cb640a88d556a1aaef5a4506d3ac1262 *gd1983-04-15beyerm201-16s1t06.flac
479aeda5859bba379028de824a816008 *gd1983-04-15beyerm201-16s1t07.flac
993f3fdda3b9b6adf0f52cb99734180e *gd1983-04-15beyerm201-16s2t01.flac
f1d8899c50e4c9363482a7628b222f75 *gd1983-04-15beyerm201-16s2t02.flac
09b01386dfe7cb3a4bb4b5b351c38791 *gd1983-04-15beyerm201-16s2t03.flac
2ade2ff1d8e4572a0c30dd22fcc44195 *gd1983-04-15beyerm201-16s2t04.flac
6f32ce8083d08770699fe2c451bd1937 *gd1983-04-15beyerm201-16s2t05.flac
94cb6f6d8e4ab03c378ad2c60a2f8095 *gd1983-04-15beyerm201-16s2t06.flac
5ce68f68de1feaa6d1fb239b7bcf7f61 *gd1983-04-15beyerm201-16s2t07.flac
7ed7fa965cf7dcd31b14382a6fbec83c *gd1983-04-15beyerm201-16s2t08.flac
94f283dcbfacf5f99fd7ef9de4c516dc *gd1983-04-15beyerm201-16s2t09.flac
89c89d29af7e99f033b2e4790c03d114 *gd1983-04-15beyerm201-16s2t10.flac
a79ec8f75da3734b598e0647185221ee *gd1983-04-15beyerm201-16s2t11.flac
cf221b8e2d3e1c1874b91b13b64e4ef0 *gd1983-04-15beyerm201-16s2t12.flac
f93244f86dc19c0824aa8bab0215918c *gd1983-04-15beyerm201-16s2t13.flac
c75321433aa9edc876e71a677e0c2f61 *gd1983-04-15beyerm201-16s2t14.flac

Comments
Add Comment
Other Sources (comments)
Senn. 421?s > MC>DAT>CD;... (0) 2nd set; SBD>PCM>DAT>Sonic... (1) (FOB) Audio Technica Mics... (0) Recording Info: Set 1: SBD... (0) flac16; Recording... (0) flac24; Recording... (0) flac16;... (0) flac16;Recording... (0) flac24; Recording... (0) flac16; AUD:... (0) flac16; 2 source... (0) flac16; Set 2... (0) flac16; aud cassette... (0) flac24; aud cassette... (0) flac24; source:... (0) flac24/48 ... (0) flac16/44.1 ... (0) flac24/48 ... (0) flac24; Recording... (0)
Date User Comment