Browse Collections Artists Sources   Search Dates

Add Show    List Management    Help


Grateful Dead 04/15/83
Community War Memorial Auditorium, Rochester, NY
Comments Add Comment    Source Collectors    Add to Collection    Add to Want List    History
Source # 141639 Other Sources
Entered by Matt Vernon
Checksums ffp , flac-md5
Disc Counts 0 / 0
Media Size
Date Circulated
Date Added

04/06/2018
Source Summary flac24/48 Recording Information Master AUD: Beyer M201 hypercardiod XY 65ft from stacks ->Sony TCD5M|TDK MA 90 No Dolby Transfer: Nakamichi CR-5A->Dogstar cables-> Tascam DR-680|SD Recorded By: Executive Crew- KAH, MY, OJ, assist to TP 
  Archive
Source Information - Download Text | Download Zip
Grateful Dead
Date 1983-04-15
Community War Memorial Auditorium
Rochester NY

This is a 24 bit 48khz fileset

Set 1
d1t01 - Shakedown Street
d1t02 - My Brother Esau
d1t03 - Brown Eyed Women
d1t04 - Little Red Rooster /
d1t05 - Dire Wolf
d1t06 - Lazy Lightning -> Supplication >
d1t07 - Deal

Set 2
d2t01 - Feel Like A Stranger /^
d2t02 - Samson And Delilah
d2t03 - Ship Of Fools
d2t04 - Maybe You Know
d2t05 - He's Gone ->
d2t06 - Bob Star ->
d2t07 - Drums -> /
d2t08 - Space ->
d2t09 - Throwing Stones ->
d2t10 - Not Fade Away ->
d2t11 - Goin' Down The Road Feeling Bad ->
d2t12 - Around And Around -> /
d2t13 - Johnny B. Goode /^^
d2t14 - encore It's All Over Now, Baby Blue

Recording notes
* ~7:00 brief drop outs
/  tape flip
/^ tape swap from tape 1 to 2
/^^tape swap from 2 to 1
Olvy had the idea that he wanted to record ALL of the drums and space so he decided to keep tape 1 side B in the deck to start set 2. Fortunate were we as many tapers had cuts.
A bit of tape hiss throughout, no dolby added some noise to these old tapes.


Recording Information
Master AUD: Beyer M201 hypercardiod XY 65ft from stacks ->Sony TCD5M|TDK MA             90 No Dolby
Transfer: Nakamichi CR-5A->Dogstar cables-> Tascam DR-680|SD
Recorded By: Executive Crew- KAH, MY, OJ, assist to TP
===========================================================================
The Rochester Community War Memorial Auditorium was a venue the Dead played at several times. It was where I saw my second ever GD show, the one where I "got it" September 2, 1980. Thanks to Rick Cantor it was not my last! To return there with recording gear excited me to no end and as Rochester is about a 90 minute drive from Syracuse many of us made the trip. For some reason Tom and I were late but Olvy, Mike and others had set up in the sweet spot, about 65 feet from stage. The venue was all GA back then and the floor was covered with cheap fiberboard commonly in use to cover the ice of the hockey floor which was down as it was still hockey season for the minor league team The Rochester Americans. It was hot and stifling in the arena and we stayed as close to the floor as possible; I recall some folks laying down between sets to cool off.

The set list is classic 83 Dead. First Set Shakedown and Little Red Rooster were atypically lengthy versions while the Lazy Lightning > Supplication was inspired. Brent throws down some lyrics and organ action for Rooster to the delight of the crowd. While relatively short the set was satisfying with excellent highlights. Jerry's mic must have gone out at the start of Brown Eyed Women, Jerry and Phil play some sweet licks while it is out and the crowd gets revved up when the crew gets it back working.Brent added to the Stranger second set opener with smokey "crazy night" scat singing.Jerry delivered Ship Of Fools with dripping vocals and sweet guitar.Maybe You Know (on the tape case as: Baby You Know How I Feel) was the band putting up with Brent's need to sing originals which ultimately did wind up with 2-3 top notch tunes (Tons of Steel IMO); however this was not one of them. Still fun for this show and I think the 3rd on that East Coast run.

The He's Gone has some downright pretty vocal harmonies and is just a killer version. This morphs into this odd arrangement of Bob rapping now named Bobstar which according to deadbase was only played 3 times.We were able to record all of the drums and space following Olvy's tape flip maneuvers. The Throwing Stones had the early Jerry leads ending without the Bobby screams. The GDTRFB is one of my favorites ever; a copy of this tape saw a lot of rotation in my playback for several years.

This was one long second set, including encore it was 1 hour 45 minutes.

- - - - -

    length     expanded size    cdr  WAVE problems  fmt   ratio  filename
    14:47.267     255532844 B   cxx   --   ---xx   flac  0.7418  gd1983-04-15-24beyerm201s1t01.flac
     7:15.107     125310764 B   cxx   --   ---xx   flac  0.7287  gd1983-04-15-24beyerm201s1t02.flac
     7:05.160     122446124 B   cxx   --   ---xx   flac  0.7327  gd1983-04-15-24beyerm201s1t03.flac
     9:11.680     158883884 B   cxx   --   ---xx   flac  0.7457  gd1983-04-15-24beyerm201s1t04.flac
     4:47.773      82878764 B   cxx   --   ---xx   flac  0.7289  gd1983-04-15-24beyerm201s1t05.flac
    10:20.067     178579244 B   cxx   --   ---xx   flac  0.7497  gd1983-04-15-24beyerm201s1t06.flac
     7:45.307     134008364 B   cxx   --   ---xx   flac  0.7532  gd1983-04-15-24beyerm201s1t07.flac
    10:46.307     186136364 B   cxx   --   ---xx   flac  0.7482  gd1983-04-15-24beyerm201s2t01.flac
     8:51.907     153189164 B   cxx   --   ---xx   flac  0.7469  gd1983-04-15-24beyerm201s2t02.flac
     8:29.467     146726444 B   cxx   --   ---xx   flac  0.7219  gd1983-04-15-24beyerm201s2t03.flac
     5:10.027      89287724 B   cxx   --   ---xx   flac  0.7580  gd1983-04-15-24beyerm201s2t04.flac
    12:32.800     216806444 B   cxx   --   ---xx   flac  0.7231  gd1983-04-15-24beyerm201s2t05.flac
     2:20.760      40538924 B   cxx   --   ---xx   flac  0.7306  gd1983-04-15-24beyerm201s2t06.flac
     3:43.813      64458284 B   cxx   --   ---xx   flac  0.7304  gd1983-04-15-24beyerm201s2t07.flac
    13:45.680     237795884 B   cxx   --   ---xx   flac  0.7005  gd1983-04-15-24beyerm201s2t08.flac
     9:18.360     160807724 B   cxx   --   ---xx   flac  0.7356  gd1983-04-15-24beyerm201s2t09.flac
     6:09.507     106417964 B   cxx   --   ---xx   flac  0.7477  gd1983-04-15-24beyerm201s2t10.flac
     6:24.880     110845484 B   cxx   --   ---xx   flac  0.7550  gd1983-04-15-24beyerm201s2t11.flac
     3:53.613      67280684 B   cxx   --   ---xx   flac  0.7482  gd1983-04-15-24beyerm201s2t12.flac
     4:27.893      77153324 B   cxx   --   ---xx   flac  0.7561  gd1983-04-15-24beyerm201s2t13.flac
     7:22.843     127538690 B   cxx   --   ---xx   flac  0.7340  gd1983-04-15-24beyerm201s2t14.flac
   164:30.216    2842623090 B                            0.7372  (21 files)



Show Checksums
ffp
gd1983-04-15-24beyerm201s1t01.flac:c2a582e325a09a9bd747f1df1e0ef259
gd1983-04-15-24beyerm201s1t02.flac:e4f1ed6c33a2da2f0779982e5c2ceff0
gd1983-04-15-24beyerm201s1t03.flac:a5a47e77952604a0788848848db2ae3e
gd1983-04-15-24beyerm201s1t04.flac:1d158bd0e737add612bf1a9bbe857cfc
gd1983-04-15-24beyerm201s1t05.flac:13d96682cd43464afb307a60be7badf0
gd1983-04-15-24beyerm201s1t06.flac:c085f4bb8584375495a08d15cf105d9c
gd1983-04-15-24beyerm201s1t07.flac:d0c8c2452e9074e63719fcd6c9a3a416
gd1983-04-15-24beyerm201s2t01.flac:0237219dd7506e96aa931d00bd6fb0c0
gd1983-04-15-24beyerm201s2t02.flac:969c01328084b52d34d5cee549b177f8
gd1983-04-15-24beyerm201s2t03.flac:a32f23fecb2655c22d2b7ba8a43a7bfd
gd1983-04-15-24beyerm201s2t04.flac:5bf56d983868a785a9cd0077dfe37a6e
gd1983-04-15-24beyerm201s2t05.flac:f5cefbe12f0278f170b0faf073251ff9
gd1983-04-15-24beyerm201s2t06.flac:435355f7a88d049e31155849e00f8b7e
gd1983-04-15-24beyerm201s2t07.flac:772cc0d7f3c8c1bcff877f1a2a60d19b
gd1983-04-15-24beyerm201s2t08.flac:d7a6d4e143424e56d6c11df02b696e55
gd1983-04-15-24beyerm201s2t09.flac:451c3cb4e4827a5674a59016e8a3433a
gd1983-04-15-24beyerm201s2t10.flac:099ac3e571f7c89fe4da4d0e237ae53d
gd1983-04-15-24beyerm201s2t11.flac:810ef423d756d55e93422f98d47411f9
gd1983-04-15-24beyerm201s2t12.flac:93e6fa18fcdd9e83406eff382b2e3e61
gd1983-04-15-24beyerm201s2t13.flac:b1ea687f00033fa246acc8622bdf6980
gd1983-04-15-24beyerm201s2t14.flac:fb3e77d9ae93b5eb05e857ee4962afdf
flac-md5
9010c7cb990dcce13287739075535ace *gd1983-04-15-24beyerm201s1t01.flac
5cc69eebdf15a4f0613eb998458d17b5 *gd1983-04-15-24beyerm201s1t02.flac
3c95056d17ead162219965eb9bc86e16 *gd1983-04-15-24beyerm201s1t03.flac
5233eff1f3d7f7b570348ad91adea94e *gd1983-04-15-24beyerm201s1t04.flac
d1286af0bdb4feb800a757b7bfb1df94 *gd1983-04-15-24beyerm201s1t05.flac
9d32e35b6fc055c7986500a8b51abe15 *gd1983-04-15-24beyerm201s1t06.flac
0958dec7124d4f518270b0b1a67ca530 *gd1983-04-15-24beyerm201s1t07.flac
a1dcddedd5c5f86f160cdbcf209c5685 *gd1983-04-15-24beyerm201s2t01.flac
5f95f465ce220756c7ca6db4668fa59c *gd1983-04-15-24beyerm201s2t02.flac
18f085f53f6a444c4e6d6c5467986f84 *gd1983-04-15-24beyerm201s2t03.flac
c7124832ed3750e2f569e1e5fa84d471 *gd1983-04-15-24beyerm201s2t04.flac
b94f63336a9fa827fe3e8ee99ff69af4 *gd1983-04-15-24beyerm201s2t05.flac
259d805a3803dd2e53176adf7754b92e *gd1983-04-15-24beyerm201s2t06.flac
a05e6ad10aa38dac706dd047c07f0ca4 *gd1983-04-15-24beyerm201s2t07.flac
27c7eb14b4609006d3e725a9e61170e0 *gd1983-04-15-24beyerm201s2t08.flac
a08c748bf15a42369cdd9869228e1e95 *gd1983-04-15-24beyerm201s2t09.flac
f86188a39368f529e35603f3af0ef58e *gd1983-04-15-24beyerm201s2t10.flac
c2d3efaee2e233ced67a598252cba952 *gd1983-04-15-24beyerm201s2t11.flac
516058efb1bb1bc207e3ba5171ebed36 *gd1983-04-15-24beyerm201s2t12.flac
c7c2b34fc80146ee3fd0fc790820c4a5 *gd1983-04-15-24beyerm201s2t13.flac
f09c1ce59cec036e0b282db546190ccb *gd1983-04-15-24beyerm201s2t14.flac

Comments
Add Comment
Other Sources (comments)
Senn. 421?s > MC>DAT>CD;... (0) 2nd set; SBD>PCM>DAT>Sonic... (1) (FOB) Audio Technica Mics... (0) Recording Info: Set 1: SBD... (0) flac16; Recording... (0) flac24; Recording... (0) flac16;... (0) flac16;Recording... (0) flac24; Recording... (0) flac16; AUD:... (0) flac16; 2 source... (0) flac16; Set 2... (0) flac16; aud cassette... (0) flac24; aud cassette... (0) flac24; source:... (0) flac16/44.1 ... (0) flac16/44.1 ... (0) flac24/48 ... (0) flac24; Recording... (0)
Date User Comment