Browse Collections Artists Sources   Search Dates

Add Show    List Management    Help


Grateful Dead 04/15/83
Community War Memorial Auditorium, Rochester, NY
Comments Add Comment    Source Collectors    Add to Collection    Add to Want List    History
Source # 141641 Other Sources
Entered by Matt Vernon
Checksums ffp , flac-md5
Disc Counts 0 / 0
Media Size
Date Circulated
Date Added

04/06/2018
Source Summary flac24/48 Recording Information First Gen AUD: Master was: Sennheiser MD421's XY 60ft from stacks ->Marantz Superscope PMD430 (3rd in line)|TDK MA no Dolby (TP) Lineage: JVC -> Sony TCD5M Transfer: Nakamichi CR-5A->Dogstar cables-> Tascam DR-680|SD Recorded BY: Tom Pinney assist to Executive Crew Transferred by: Kyle Holbrook 
  Archive
Source Information - Download Text | Download Zip
Grateful Dead
Date 1983-04-15
War Memorial Auditorium
Rochester NY

This is a 24 bit 48khz fileset

Set 1
d1t01 - Shakedown Street
d1t02 - My Brother Esau
d1t03 - Brown Eyed Women
d1t04 - Little Red Rooster /
d1t05 - Dire Wolf //
d1t06 - Lazy Lightning -> Supplication ->
d1t07 - Deal

Set 2
d2t01 - Feel Like A Stranger *
d2t02 - Samson And Delilah
d2t03 - Ship Of Fools
d2t04 - Maybe You Know
d2t05 - He's Gone ->
d2t06 - Bob Star -> / #
d2t07 - Drums ->   /*
d2t08 - Space ->
d2t09 - Throwing Stones ->
d2t10 - Not Fade Away ->
d2t11 - Goin' Down The Road Feeling Bad ->
d2t12 - Around And Around -> /
d2t13 - Johnny B. Goode /##
d2t14 - encore It's All Over Now, Baby Blue

Recording notes
* ~6:45 brief drop outs
/  tape flip
// pause tape
/# two cuts, first for this deck, 2nd for the lead deck
/* cut from lead deck, start again with space
/## two cuts but about 2 minutes apart


Recording Information
First Gen AUD: Master was: Sennheiser MD421's XY 60ft from stacks ->Marantz Superscope PMD430 (3rd in line)|TDK MA no Dolby (TP)
Lineage: JVC -> Sony TCD5M
Transfer: Nakamichi CR-5A->Dogstar cables-> Tascam DR-680|SD
Recorded BY: Tom Pinney assist to Executive Crew
Transferred by: Kyle Holbrook
===========================================================================
The Rochester Community War Memorial Auditorium was a venue the Dead played at several times. It was where I saw my second ever GD show, the one where I "got it" September 2, 1980. Thanks to Rick Cantor it was not my last! To return there with recording gear excited me to no end and as Rochester is about a 90 minute drive from Syracuse many of us made the trip. For some reason Tom and I were late but Olvy, Mike and others had set up in the sweet spot, about 65 feet from stage. The venue was all GA back then and the floor was covered with cheap fiberboard commonly in use to cover the ice of the hockey floor which was down as it was still hockey season for the minor league team The Rochester Americans. It was hot and stifling in the arena and we stayed as close to the floor as possible; I recall some folks laying down between sets to cool off.

The set list is classic 83 Dead. First Set Shakedown and Little Red Rooster were atypically lengthy versions while the Lazy Lightning > Supplication was inspired. Brent throws down some lyrics and organ action for Rooster to the delight of the crowd. While relatively short the set was satisfying with excellent highlights. Jerry's mic must have gone out at the start of Brown Eyed Women, Jerry and Phil play some sweet licks while it is out and the crowd gets revved up when the crew gets it back working.Brent added to the Stranger second set opener with smokey "crazy night" scat singing.Jerry delivered Ship Of Fools with dripping vocals and sweet guitar.Maybe You Know (on the tape case as: Baby You Know How I Feel) was the band putting up with Brent's need to sing originals which ultimately did wind up with 2-3 top notch tunes (Tons of Steel IMO); however this was not one of them. Still fun for this show and I think the 3rd on that East Coast run.

The He's Gone has some downright pretty vocal harmonies and is just a killer version. This morphs into this odd arrangement of Bob rapping now named Bobstar which according to deadbase was only played 3 times (which is cut on this version). Tom was patched into some 421's next to our stand. The tonal differences between this and the Beyer M201 recording we also made are notable. Much less mid range and smoother bass harmonics. The Baby Blue on this recording stands out for its' crisp drums and up front guitar tone; listen for Bob's chordal touches under the bass and guitar leads.

This was one long second set, including encore it was 1 hour 45 minutes.

- - - - -

    length     expanded size    cdr  WAVE problems  fmt   ratio  filename
    13:41.027     236455724 B   cxx   --   ---xx   flac  0.7435  gd1983-04-15-24senn421holbrooks1t01.flac
     6:46.267     117004844 B   cxx   --   ---xx   flac  0.7408  gd1983-04-15-24senn421holbrooks1t02.flac
     5:40.053      97935404 B   cxx   --   ---xx   flac  0.7460  gd1983-04-15-24senn421holbrooks1t03.flac
     8:59.227     155297324 B   cxx   --   ---xx   flac  0.7421  gd1983-04-15-24senn421holbrooks1t04.flac
     3:33.400      61459244 B   cxx   --   ---xx   flac  0.7252  gd1983-04-15-24senn421holbrooks1t05.flac
    10:02.893     173633324 B   cxx   --   ---xx   flac  0.7460  gd1983-04-15-24senn421holbrooks1t06.flac
     7:37.356     131718704 B   cxx   --   ---xx   flac  0.7518  gd1983-04-15-24senn421holbrooks1t07.flac
    10:33.307     182392364 B   cxx   --   ---xx   flac  0.7466  gd1983-04-15-24senn421holbrooks2t01.flac
     8:22.027     144583724 B   cxx   --   ---xx   flac  0.7657  gd1983-04-15-24senn421holbrooks2t02.flac
     7:43.547     133501484 B   cxx   --   ---xx   flac  0.7434  gd1983-04-15-24senn421holbrooks2t03.flac
     4:47.987      82940204 B   cxx   --   ---xx   flac  0.7819  gd1983-04-15-24senn421holbrooks2t04.flac
    12:44.773     220254764 B   cxx   --   ---xx   flac  0.7485  gd1983-04-15-24senn421holbrooks2t05.flac
     1:52.493      32398124 B   cxx   --   ---xx   flac  0.7576  gd1983-04-15-24senn421holbrooks2t06.flac
     6:41.640     115672364 B   cxx   --   ---xx   flac  0.7424  gd1983-04-15-24senn421holbrooks2t07.flac
    11:53.253     205417004 B   cxx   --   ---xx   flac  0.7193  gd1983-04-15-24senn421holbrooks2t08.flac
     9:31.867     164697644 B   cxx   --   ---xx   flac  0.7486  gd1983-04-15-24senn421holbrooks2t09.flac
     5:59.333     103488044 B   cxx   --   ---xx   flac  0.7621  gd1983-04-15-24senn421holbrooks2t10.flac
     6:24.440     110718764 B   cxx   --   ---xx   flac  0.7716  gd1983-04-15-24senn421holbrooks2t11.flac
     3:46.960      65364524 B   cxx   --   ---xx   flac  0.7624  gd1983-04-15-24senn421holbrooks2t12.flac
     3:29.120      60226604 B   cxx   --   ---xx   flac  0.7487  gd1983-04-15-24senn421holbrooks2t13.flac
     6:56.172     119857496 B   cxx   --   ---xx   flac  0.7445  gd1983-04-15-24senn421holbrooks2t14.flac
   157:07.141    2715017676 B                            0.7476  (21 files)







Show Checksums
ffp
gd1983-04-15-24senn421holbrooks1t01.flac:24855a69485bacbbf91a92f5f84c0053
gd1983-04-15-24senn421holbrooks1t02.flac:b6f3d7eb0641bc0fb5bf53cd8a7bb12e
gd1983-04-15-24senn421holbrooks1t03.flac:2d73035fb7d0828014c834a4c1c677ea
gd1983-04-15-24senn421holbrooks1t04.flac:ccc20ace569382e53cf591cb68f87274
gd1983-04-15-24senn421holbrooks1t05.flac:ab85d092739408ee017b0c5f33f4c81c
gd1983-04-15-24senn421holbrooks1t06.flac:ef68c609f2527d67158431f30b48c1f1
gd1983-04-15-24senn421holbrooks1t07.flac:474bf4f4f710ab0438db4bc0cf3aaf4a
gd1983-04-15-24senn421holbrooks2t01.flac:3637620383d28e3890c8ebc0e77e327c
gd1983-04-15-24senn421holbrooks2t02.flac:c021693b782c76d0426d74bc8390c95e
gd1983-04-15-24senn421holbrooks2t03.flac:e7b727c1fc18c91b0461b032aba2fddd
gd1983-04-15-24senn421holbrooks2t04.flac:834f19c37b5c089da9ec860bb6c8d312
gd1983-04-15-24senn421holbrooks2t05.flac:1330d50bc2a34d724c19797701f09661
gd1983-04-15-24senn421holbrooks2t06.flac:8c5af9a4acd6456ac9bb0dfc0e874570
gd1983-04-15-24senn421holbrooks2t07.flac:8498e0b64fe1397376922f9609e662b6
gd1983-04-15-24senn421holbrooks2t08.flac:2e9daf5edd858fd6110436a94f471f41
gd1983-04-15-24senn421holbrooks2t09.flac:1a342feee90b699c7d66ddfcd5815739
gd1983-04-15-24senn421holbrooks2t10.flac:5b2deb81c37360cbcc6abdac0c17b8eb
gd1983-04-15-24senn421holbrooks2t11.flac:be0fcd6f69347df4032948fa904a0879
gd1983-04-15-24senn421holbrooks2t12.flac:62f339ff4fb93ece5aecf99537604800
gd1983-04-15-24senn421holbrooks2t13.flac:53ec45e8a5f830a24fb161ab8752c6dd
gd1983-04-15-24senn421holbrooks2t14.flac:f3de22f93744299e2430e02e849d5135
flac-md5
bcc3203b0631a364adb4eaab09e91e9f *gd1983-04-15-24senn421holbrooks1t01.flac
4aaa402f2b5f4e0230809847e25f2371 *gd1983-04-15-24senn421holbrooks1t02.flac
2838116698793cd186ce9fb11c0b3814 *gd1983-04-15-24senn421holbrooks1t03.flac
1d43ac118917567b41dca4f62f2adbe0 *gd1983-04-15-24senn421holbrooks1t04.flac
044da2af356c8c182c9d2902a48c17d3 *gd1983-04-15-24senn421holbrooks1t05.flac
9a95ca1b27a8121dd37f4c7a9d29206c *gd1983-04-15-24senn421holbrooks1t06.flac
15e5c5efabfa072927357c1910cfa9cd *gd1983-04-15-24senn421holbrooks1t07.flac
a62a4ade168b7159ba5d881bbc0305ec *gd1983-04-15-24senn421holbrooks2t01.flac
37940c82f5de709c917f136c6f166fcd *gd1983-04-15-24senn421holbrooks2t02.flac
ce4d759be4f51cf6ff1c92e9d64670ac *gd1983-04-15-24senn421holbrooks2t03.flac
bdc1c74ea80365a521f3d67e0b933b0f *gd1983-04-15-24senn421holbrooks2t04.flac
06320d147a7af807ae7392d47e74d4a5 *gd1983-04-15-24senn421holbrooks2t05.flac
a599c954fa2555aed1fea936a629f968 *gd1983-04-15-24senn421holbrooks2t06.flac
f70bda91642ef06db9b94588855f55de *gd1983-04-15-24senn421holbrooks2t07.flac
d63f39f65e1f31ffa95afd3f41b98fa9 *gd1983-04-15-24senn421holbrooks2t08.flac
6232a0e9ba02b1659386307fe69b6d42 *gd1983-04-15-24senn421holbrooks2t09.flac
efedb2350919bae1a7b6bb0c280f8710 *gd1983-04-15-24senn421holbrooks2t10.flac
608fab721303971a62bdb70656bc7790 *gd1983-04-15-24senn421holbrooks2t11.flac
4599e939757977073d8f81e7475e4ff7 *gd1983-04-15-24senn421holbrooks2t12.flac
ea2b55197090e00e59c11ff39ad11844 *gd1983-04-15-24senn421holbrooks2t13.flac
cdbeed359004e0de02ec50fa80af9630 *gd1983-04-15-24senn421holbrooks2t14.flac

Comments
Add Comment
Other Sources (comments)
Senn. 421?s > MC>DAT>CD;... (0) 2nd set; SBD>PCM>DAT>Sonic... (1) (FOB) Audio Technica Mics... (0) Recording Info: Set 1: SBD... (0) flac16; Recording... (0) flac24; Recording... (0) flac16;... (0) flac16;Recording... (0) flac24; Recording... (0) flac16; AUD:... (0) flac16; 2 source... (0) flac16; Set 2... (0) flac16; aud cassette... (0) flac24; aud cassette... (0) flac24; source:... (0) flac16/44.1 ... (0) flac24/48 ... (0) flac16/44.1 ... (0) flac24; Recording... (0)
Date User Comment