Browse Collections Artists Sources   Search Dates

Add Show    List Management    Help


Grateful Dead 12/27/80
Oakland Auditorium Arena, Oakland, CA
Comments Add Comment    Source Collectors    Add to Collection    Add to Want List    History
Source # 141648 Other Sources
Entered by Matt Vernon
Checksums ffp , flac-md5
Disc Counts 0 / 0
Media Size
Date Circulated
Date Added
04/06/2018
04/06/2018
Source Summary flac16; Source Info: Jeff Hellman's Master Soundboard Cassettes (dolby B) > Dan DeLuca's 1st generation reels > Tim Dalton's PCM; Transfer Info: PCM (Sony SL-10)> Sony PCM-601ESD > Behringer Ultramatch Pro > Tascam DA-3000 (wav 16-bit/44.1k)> Adobe Audition 3.0 > TLH flac16 
  Archive
Source Information - Download Text | Download Zip
Grateful Dead
Oakland Auditorium
Oakland, CA
Saturday December 27th, 1980

Source Info:
Jeff Hellman's Master Soundboard Cassettes (dolby B) > Dan DeLuca's 1st generation reels > Tim Dalton's PCM

Transfer Info:
PCM (Sony SL-10)> Sony PCM-601ESD > Behringer Ultramatch Pro > Tascam DA-3000 (wav 16-bit/44.1k)> Adobe Audition 3.0 > TLH flac16

Notes:
- Thanks to Tim Dalton for the PCM source
- Thanks to Charlie Miller for the transfer and coordinating this effort
- Thanks to Bob Wagner and Charlie Miller for the shnid107791 Nakamichi 700 source which supplies the crowd and first 0:51 (1:07 total) of "Feel Like A Stranger", as well as a 0:08 patch in "Drums"
- First minute or so of "Mississippi Half-Step Uptown Toodeloo" slightly muffled

Mastered by Scott Clugston
April 2, 2018

Set One:
t01 - Feel Like A Stranger
t02 - Sugaree >
t03 - New Minglewood Blues
t04 - Loser
t05 - Looks Like Rain
t06 - Tennessee Jed
t07 - Passenger
t08 - It Must Have Been The Roses
t09 - The Music Never Stopped

Set Two:
t10 - Tuning
t11 - China Cat Sunflower >
t12 - I Know You Rider
t13 - Estimated Prophet >
t14 - Eyes Of The World >
      Jam >
t15 - Drums >
t16 - Space >
t17 - The Wheel >
t18 - Truckin' >
t19 - Wharf Rat >
t20 - Goin' Down The Road Feeling Bad >
t21 - One More Saturday Night
Encore:
t22 - Johnny B. Goode



    length     expanded size    cdr  WAVE problems  fmt   ratio  filename
    10:23.74      110071292 B   ---   --   ---xx   flac  0.5579  gd80-12-27 t01 Feel Like A Stranger.flac
    12:16.32      129905708 B   ---   --   ---xx   flac  0.5678  gd80-12-27 t02 Sugaree.flac
     8:48.08       93158060 B   ---   --   ---xx   flac  0.5788  gd80-12-27 t03 New Minglewood Blues.flac
     9:13.67       97706828 B   ---   --   ---xx   flac  0.5318  gd80-12-27 t04 Loser.flac
     9:18.04       98440652 B   ---   --   ---xx   flac  0.5365  gd80-12-27 t05 Looks Like Rain.flac
    11:15.61      119213516 B   ---   --   ---xx   flac  0.5467  gd80-12-27 t06 Tennessee Jed.flac
     6:05.38       64475420 B   ---   --   ---xx   flac  0.5911  gd80-12-27 t07 Passenger.flac
     7:10.24       75908492 B   ---   --   ---xx   flac  0.5086  gd80-12-27 t08 It Must Have Been The Roses.flac
     8:04.47       85488188 B   ---   --   ---xx   flac  0.6396  gd80-12-27 t09 The Music Never Stopped.flac
     1:14.08       13072460 B   ---   --   ---xx   flac  0.4704  gd80-12-27 t10 Tuning.flac
     5:21.25       56683244 B   ---   --   ---xx   flac  0.6123  gd80-12-27 t11 China Cat Sunflower.flac
     6:34.22       69553388 B   ---   --   ---xx   flac  0.6406  gd80-12-27 t12 I Know You Rider.flac
    11:09.71      118178636 B   ---   --   ---xx   flac  0.6179  gd80-12-27 t13 Estimated Prophet.flac
    15:50.46      167688236 B   ---   --   ---xx   flac  0.5944  gd80-12-27 t14 Eyes Of The World.flac
     7:29.61       79347116 B   ---   --   ---xx   flac  0.5185  gd80-12-27 t15 Drums.flac
     3:49.28       40461500 B   ---   --   ---xx   flac  0.5294  gd80-12-27 t16 Space.flac
     6:13.47       65907788 B   ---   --   ---xx   flac  0.6075  gd80-12-27 t17 The Wheel.flac
     7:52.50       83378444 B   ---   --   ---xx   flac  0.6336  gd80-12-27 t18 Truckin'.flac
     9:43.02      102845948 B   ---   --   ---xx   flac  0.5817  gd80-12-27 t19 Wharf Rat.flac
     7:02.70       74605484 B   ---   --   ---xx   flac  0.6151  gd80-12-27 t20 Goin' Down The Feeling Bad.flac
     4:33.74       48331292 B   ---   --   ---xx   flac  0.6170  gd80-12-27 t21 One More Saturday Night.flac
     4:32.30       48051404 B   ---   --   ---xx   flac  0.6241  gd80-12-27 t22 Johnny B. Goode.flac
   174:04.64     1842473096 B                            0.5805  (22 files)


Show Checksums
ffp
gd80-12-27 t01 Feel Like A Stranger.flac:e8da0e4f9be9232f4a2b9489b9424b43
gd80-12-27 t02 Sugaree.flac:e74205b68c6240c387f23fc7869db877
gd80-12-27 t03 New Minglewood Blues.flac:8316314d8f555e05bef02df3930b4b85
gd80-12-27 t04 Loser.flac:a155c329a7bf5afd90161135c64a36e0
gd80-12-27 t05 Looks Like Rain.flac:3cef68c52284e6e5c5b9f4fc2a31c631
gd80-12-27 t06 Tennessee Jed.flac:d3c4ee5e2473f332e3966a84d8cb72ec
gd80-12-27 t07 Passenger.flac:4e3ceba70e2651f314680c375ff7188c
gd80-12-27 t08 It Must Have Been The Roses.flac:9191a2899fd6a6f97eda2e8f364a1b72
gd80-12-27 t09 The Music Never Stopped.flac:65d3dc91ab746c4e279be11e7811033a
gd80-12-27 t10 Tuning.flac:762253f228896ab8b085a825782720ec
gd80-12-27 t11 China Cat Sunflower.flac:effb297286e60ccf0b5f790e1230bb93
gd80-12-27 t12 I Know You Rider.flac:d723b3ecb6255b42046f1dfe73f6f8ee
gd80-12-27 t13 Estimated Prophet.flac:4cc6e88db0b021c33590258b4dbca0e3
gd80-12-27 t14 Eyes Of The World.flac:5f8aefec29823b0fd3f5001a7b155f03
gd80-12-27 t15 Drums.flac:947f4e94a512d42020823214b4b6fc2d
gd80-12-27 t16 Space.flac:a7c8f5c1157a022ac22690921e42a11d
gd80-12-27 t17 The Wheel.flac:2bf835741866bad34e2b2140c9ad7b98
gd80-12-27 t18 Truckin'.flac:900e1e3fdedbf871dcac09955be9ff00
gd80-12-27 t19 Wharf Rat.flac:66bc411eca496fba787858a8b90dce6b
gd80-12-27 t20 Goin' Down The Feeling Bad.flac:12c2ee8fca5a59c263e5755538150a11
gd80-12-27 t21 One More Saturday Night.flac:541f8de66cc97b3706eac9d175c32282
gd80-12-27 t22 Johnny B. Goode.flac:2ae7cea749e0ad9d4b76ad067f19cf1f
flac-md5
adae411726857b1fe22fcc9065414893 *gd80-12-27 t01 Feel Like A Stranger.flac
6ae93bd511ed4d76f36735811c2b914f *gd80-12-27 t02 Sugaree.flac
2b74ff0379a6fce696fc2c4d1d67e9b1 *gd80-12-27 t03 New Minglewood Blues.flac
abf5a32fa228dedbe23111e5bf298e61 *gd80-12-27 t04 Loser.flac
3703b9ed405771e675784ed8625e4a30 *gd80-12-27 t05 Looks Like Rain.flac
fe457b794fb1b33fab9b87017ff5bcb6 *gd80-12-27 t06 Tennessee Jed.flac
a775e5a486938102f4b02bac99ca51bb *gd80-12-27 t07 Passenger.flac
a12187aaf46947ea47acea90d056c648 *gd80-12-27 t08 It Must Have Been The Roses.flac
85fcd069bc3cc3dd660f3738f84ed6be *gd80-12-27 t09 The Music Never Stopped.flac
e3770656e8032c90bb789a2b59a4471a *gd80-12-27 t10 Tuning.flac
b1210b5e5dcd1e839f3979fe8d97bc0c *gd80-12-27 t11 China Cat Sunflower.flac
09b6a5a0234edc45af61bd16e5c6ec98 *gd80-12-27 t12 I Know You Rider.flac
edf5dc053672784acf3b0599fa845c11 *gd80-12-27 t13 Estimated Prophet.flac
c5f138daea1937acd1bf68095eba6a70 *gd80-12-27 t14 Eyes Of The World.flac
0ee6cb9de15e87fbb014d34c3c8a9e7e *gd80-12-27 t15 Drums.flac
8d64f968720c9788470b7f3015403313 *gd80-12-27 t16 Space.flac
78ccbee6225c425a1e9d572b5c658668 *gd80-12-27 t17 The Wheel.flac
a9ea83136e7b6b3ef5ee73cf9d8c56de *gd80-12-27 t18 Truckin'.flac
f0436bd0529f02562e0329a447a781ee *gd80-12-27 t19 Wharf Rat.flac
d8b540aae5054e60a4edb327564c7617 *gd80-12-27 t20 Goin' Down The Feeling Bad.flac
667366a9b2d9565633dc6ead9f106451 *gd80-12-27 t21 One More Saturday Night.flac
0079974b68e1366f77d2b197a4db097c *gd80-12-27 t22 Johnny B. Goode.flac

Comments
Add Comment
Other Sources (comments)
SBD; via Stewart McCloskey... (0) MSR>C>DAT>WAV>SHN;... (2) flac16; Recording by... (0) flac16; Recording... (0) flac24; Sony TCD-5M... (0) flac16; Soundboard,... (0) flac16; Fix of... (0)
Date User Comment