Browse Collections Artists Sources   Search Dates

Add Show    List Management    Help


Grateful Dead 10/21/88
Reunion Arena, Dallas, TX
Comments Add Comment    Source Collectors    Add to Collection    Add to Want List    History
Source # 141657 Other Sources
Entered by Matt Vernon
Checksums flac-md5 , ffp
Disc Counts 0 / 0
Media Size
Date Circulated
Date Added
04/08/2018
04/08/2018
Source Summary flac16; Source Info: Ted Mattes' Master Audience PCM (OTS); Schoeps CMC3/MK41 > Oade P/S > Sony PCM-F1 > Sony SL-2000; Transfer Info: PCM (Sony SL-10)> Sony PCM-601ESD > Behringer Ultramatch Pro > Tascam DA-3000 (wav 16-bit/44.1k)> Adobe Audition 3.0 > TLH flac16 
  Archive
Source Information - Download Text | Download Zip
Grateful Dead
Reunion Arena
Dallas, TX
Friday October 21st, 1988

Source Info:
Ted Mattes' Master Audience PCM (OTS); Schoeps CMC3/MK41 > Oade P/S > Sony PCM-F1 > Sony SL-2000

Tansfer Info:
PCM (Sony SL-10)> Sony PCM-601ESD > Behringer Ultramatch Pro > Tascam DA-3000 (wav 16-bit/44.1k)> Adobe Audition 3.0 > TLH flac16

Notes:
- Thanks to Ted Mattes for the source PCM
- Thanks to Charlie Miller for the transfer and coordinating this effort

Mastered by Scott Clugston
April 4, 2018

Set One:
t01 - Crowd
t02 - Let The Good Times Roll >
t03 - Feel Like A Stranger >
t04 - Franklin's Tower
t05 - Walkin' Blues
t06 - Believe It Or Not >
t07 - Stuck Inside of Mobile, With The Memphis Blues Again
t08 - Dupree's Diamond Blues
t09 - Jack Straw

Set Two:
t10 - Crowd / Happy Birthday Tuning for Brent's 36th
t11 - Wang Dang Doodle
t12 - Victim Or The Crime >
t13 - Playin' In the Band >
t14 - Foolish Heart
t15 - Man Smart (Woman Smarter)>
t16 - Drums >
t17 - Space >
t18 - I Will Take You Home >
t19 - Goin' Down The Road Feeling Bad >
t20 - All Along the Watchtower >
t21 - Stella Blue >
t22 - Sugar Magnolia
t23 - Encore Break
t24 - Brokedown Palace



    length     expanded size    cdr  WAVE problems  fmt   ratio  filename
     1:46.68       18858380 B   ---   --   ---xx   flac  0.4323  gd88-10-21 t01 Crowd.flac
     4:29.65       47604524 B   ---   --   ---xx   flac  0.5232  gd88-10-21 t02 Let The Good Times Roll.flac
     6:41.25       70795244 B   ---   --   ---xx   flac  0.5413  gd88-10-21 t03 Feel Like A Stranger.flac
     7:28.73       79198940 B   ---   --   ---xx   flac  0.5531  gd88-10-21 t04 Franklin's Tower.flac
     6:53.49       72968492 B   ---   --   ---xx   flac  0.5305  gd88-10-21 t05 Walkin' Blues.flac
     6:43.49       71204492 B   ---   --   ---xx   flac  0.5032  gd88-10-21 t06 Believe It Or Not.flac
    10:47.48      114243740 B   ---   --   ---xx   flac  0.5494  gd88-10-21 t07 Memphis Blues Again.flac
     5:45.64       61008572 B   ---   --   ---xx   flac  0.5280  gd88-10-21 t08 Dupree's Diamond Blues.flac
     5:46.25       61093244 B   ---   --   ---xx   flac  0.5473  gd88-10-21 t09 Jack Straw.flac
     4:46.24       50506892 B   ---   --   ---xx   flac  0.4540  gd88-10-21 t10 Crowd_Happy Birthday Brent.flac
     6:22.29       67453052 B   ---   --   ---xx   flac  0.5411  gd88-10-21 t11 Wang Dang Doodle.flac
     6:10.06       65282156 B   ---   --   ---xx   flac  0.5300  gd88-10-21 t12 Victim Or The Crime.flac
    11:38.32      123202508 B   ---   --   ---xx   flac  0.5328  gd88-10-21 t13 Foolish Heart.flac
     7:49.41       82828076 B   ---   --   ---xx   flac  0.5460  gd88-10-21 t14 Man Smart (Woman Smarter).flac
     9:17.13       98285420 B   ---   --   ---xx   flac  0.4654  gd88-10-21 t15 Drums.flac
     5:41.08       60171260 B   ---   --   ---xx   flac  0.4451  gd88-10-21 t16 Space.flac
     4:16.26       45219596 B   ---   --   ---xx   flac  0.4032  gd88-10-21 t17 I Will Take You Home.flac
     6:14.63       66121820 B   ---   --   ---xx   flac  0.5092  gd88-10-21 t18 Goin' Down The Road Feeling Bad.flac
     5:30.46       58320236 B   ---   --   ---xx   flac  0.5413  gd88-10-21 t19 All Along The Watchtower.flac
     8:30.53       90088700 B   ---   --   ---xx   flac  0.4594  gd88-10-21 t20 Stella Blue.flac
     8:06.30       85801004 B   ---   --   ---xx   flac  0.5538  gd88-10-21 t21 Sugar Magnolia.flac
     3:09.63       33487820 B   ---   --   ---xx   flac  0.4986  gd88-10-21 t22 Encore Break.flac
     6:13.14       65830172 B   ---   --   ---xx   flac  0.4931  gd88-10-21 t23 Brokedown Palace.flac
   150:11.14     1589574340 B                            0.5140  (23 files)


Show Checksums
flac-md5
13584e0887421cfa841853352b21faff *gd88-10-21 t01 Crowd.flac
4b42c7916384eb1f824db87eae3f2d3c *gd88-10-21 t02 Let The Good Times Roll.flac
8d561f934793975082feecff0df6516b *gd88-10-21 t03 Feel Like A Stranger.flac
d4d6ca9a26fe4f8bdc34b294a6236d5d *gd88-10-21 t04 Franklin's Tower.flac
5fc06699c42e1566a942ad1bc8bd2412 *gd88-10-21 t05 Walkin' Blues.flac
09ece406d20de072050b310d6a331419 *gd88-10-21 t06 Believe It Or Not.flac
123597328a3832ee69d127b32bed1a45 *gd88-10-21 t07 Memphis Blues Again.flac
6d25d179391c047cf5c24f5cb3258d5a *gd88-10-21 t08 Dupree's Diamond Blues.flac
c80367e8a2b30480f9b33435efc0afa4 *gd88-10-21 t09 Jack Straw.flac
d9c7423fe678bb57b929e2fa42960508 *gd88-10-21 t10 Crowd_Happy Birthday Brent.flac
e0e1cff27b25dfb2952bc528001e40a3 *gd88-10-21 t11 Wang Dang Doodle.flac
e7c5f12122fb49f152ac8798961aee9a *gd88-10-21 t12 Victim Or The Crime.flac
d9eae53b90825faa3222d0d6963ffa93 *gd88-10-21 t13 Foolish Heart.flac
0d2539904f19104bfb54acad5a8cb517 *gd88-10-21 t14 Man Smart (Woman Smarter).flac
d010be6898e8851d704fab6ed7bc4f5b *gd88-10-21 t15 Drums.flac
4ee3fa9c3dcf2b478c28117bcbc0e6f2 *gd88-10-21 t16 Space.flac
48690af4a0d01e09d2feba5e1c4089a6 *gd88-10-21 t17 I Will Take You Home.flac
b2b5946c3d5f5681ff07af4726260e15 *gd88-10-21 t18 Goin' Down The Road Feeling Bad.flac
5672266609fd554c6714d875d7bc1b99 *gd88-10-21 t19 All Along The Watchtower.flac
6c7bedd4311ccea3aa22d15559192a25 *gd88-10-21 t20 Stella Blue.flac
1088aadd8b1394666ab3192d9db9bbd4 *gd88-10-21 t21 Sugar Magnolia.flac
f2dccca2b25d3083cf0dd7ea26c27b6f *gd88-10-21 t22 Encore Break.flac
80e1fa0ebd669a336ed12eb44314ff74 *gd88-10-21 t23 Brokedown Palace.flac
ffp
gd88-10-21 t01 Crowd.flac:6f8024e9dd134a458988ea9b67d04d45
gd88-10-21 t02 Let The Good Times Roll.flac:2bbd8d690e8e621660905569d3e0bcc2
gd88-10-21 t03 Feel Like A Stranger.flac:f25657a23d6395a7c42699ecfb82bbd5
gd88-10-21 t04 Franklin's Tower.flac:344dfcda7029a421d7eb6c64d56d40d0
gd88-10-21 t05 Walkin' Blues.flac:f4f55087cc280eb44fbdf2080dc17723
gd88-10-21 t06 Believe It Or Not.flac:cbbb6b6418fb953158ea4765b0fca5d8
gd88-10-21 t07 Memphis Blues Again.flac:7720ad551426204ee7e53805bbc306b4
gd88-10-21 t08 Dupree's Diamond Blues.flac:a34adc8f6ebeb91191455c23d16a23b5
gd88-10-21 t09 Jack Straw.flac:ac34783ecc89ec96a92917b005e65152
gd88-10-21 t10 Crowd_Happy Birthday Brent.flac:02a7f643711e1d7a1fa442a969114230
gd88-10-21 t11 Wang Dang Doodle.flac:d3ee8b4ef4a12f5d05992a09f786eb86
gd88-10-21 t12 Victim Or The Crime.flac:71208c7479dec412605d9831cc3d4e33
gd88-10-21 t13 Foolish Heart.flac:8171063ed92ff0d6e2966144330a99db
gd88-10-21 t14 Man Smart (Woman Smarter).flac:961d22e5f12d7d9151f8ed38b6a9f865
gd88-10-21 t15 Drums.flac:8bf54fdc9f7e1289613a471f26b4401e
gd88-10-21 t16 Space.flac:b64b814836832ef2b1aac194f6320938
gd88-10-21 t17 I Will Take You Home.flac:d62d80f99a57983ed8c0dc95233a406c
gd88-10-21 t18 Goin' Down The Road Feeling Bad.flac:78f5e06ef491d43312a3e9bb07f1050c
gd88-10-21 t19 All Along The Watchtower.flac:e6e94d2073ccecc641efd2d5fb3741c7
gd88-10-21 t20 Stella Blue.flac:fe57984f46ba9ddf5a7a4207ee49d5b3
gd88-10-21 t21 Sugar Magnolia.flac:c56a24b2b0f3a709d3911f24dbc6e812
gd88-10-21 t22 Encore Break.flac:23f3219b18a08704c25a8e3cfbdd414f
gd88-10-21 t23 Brokedown Palace.flac:b414244c0963d8f575a8a8cc12169288

Comments
Add Comment
Other Sources (comments)
MSC>?>DAT>CDR Eac > cool... (0) Recording Info: SBD ->... (0) Unknown Nakamichi mics > ?... (0) flac24; Master... (0) flac16; Master... (0) flac16/44.1 Source... (0)
Date User Comment