Browse Collections Artists Sources   Search Dates

Add Show    List Management    Help


Phish 04/08/90
Fly Me To The Moon Saloon, Telluride, CO
Comments Add Comment    Source Collectors    Add to Collection    Add to Want List    History
Source # 141666 Other Sources
Entered by Matt Vernon
Checksums orig-ffp , ffp-fixed
Disc Counts 0 / 0
Media Size
Date Circulated
Date Added

04/09/2018
Source Summary flac16 44.1khz Source: Soundboard recorded by Paul Languedoc, provided to Jeff Goldberg by Niel Ringstad via Page McConnell. Transfer: Jeff Goldberg 
Source Information - Download Text | Download Zip
Phish
"Fly Me To The Moon Saloon"
Telluride, CO
April 8, 1990

Source: Soundboard recorded by Paul Languedoc, provided to Jeff Goldberg by Niel Ringstad via Page McConnell

Transfer: By Jeff Goldberg
Cassette deck: TASCAM 112RmkII w/ LA-112 balancing kit installed for XLR ports
Analog to digital conversion (ADC): Apogee converters @ 24-bit, 96 kHz & 192 kHz
CPU: 4.0 GHz Intel Core i7
RAM: 32 GB DDR3
Operating System: macOS Sierra (10.12.6)
Digital Audio Workstation: Avid Pro Tools (2018.3)
Waveform Editing: Steinberg WaveLab Pro (9.5)
Restoration: iZotope RX 6 Post Production Suite 2
Mastering: iZotope Ozone 8 Advanced Mastering Suite (8.01)
Process: Like last round, the tapes were played back on a TASCAM 112RmkII (a pro-level, three-head deck with the heads freshly cleaned and demagnetized) using the balanced (+4 dBu) XLR outputs. The signal was sent into Apogee ADCs, and was recorded into Pro Tools at a bit depth of 24-bit and sample rates of either 96 kHz or 192 kHz, depending on the tape (more on this shortly.)

Post Transfer Processing:
Each file was cleaned-up using RX 6 to not only remove the crackling, but also to get rid of any low-frequency hum (and harmonic intervals thereof) that had made it onto the cassettes via either the recording equipment itself or the electricity configuration of the venue at the time of the recordings. Any tape hiss or noise that had existed above around 3000 Hz (in order to preserve high-end frequencies from sonic elements such as cymbals and microphone sibilance) was then cleared-out.

From there, the waveforms were edited, separated (or combined in some cases) by track within WaveLab, and saved as individual files:
Mastering was completed in Ozone 8 in order to ensure consistent equalizations:
Loudness and normalization was also maximized in order to not only meet LUFS streaming standards, but also have enough volume on various forms of media:
The files were finally dithered down to 16-bit (to make them CD-compatible).

Set 1
01. The Divided Sky
02. Funky Bitch
03. You Enjoy Myself*
04. If I Only Had A Brain**
05. The Oh Kee Pa Ceremony >
06. Suzy Greenberg***
07. Uncle Pen****
Possum (missing)

Set 2
01. Golgi Apparatus***** >
02. Walk Away
03. The Lizards
04. Slave To The Traffic Light >
05. Mike’s Song >
06. I Am Hydrogen >
07. Weekapaug Groove
08. Fee >
09. My Sweet One >
10. Run Like An Antelope******

Encore
Carolina (missing)
Fire (missing)

Notes:

*You Enjoy Myself contains an “Oriental Riff” tease (later referred to as the ‘Charlie Chan signal’) during the drums and bass section
**with vacuum solo by Fishman
***Suzy Greenberg contains a “Third Stone From The Sun” tease during the second bridge’s guitar riff
****Uncle Pen’s ending is cut
*****Golgi Apparatus’ beginning is cut
******Run Like An Antelope is cut during the first section

Phish.com has the band slightly misquoted a couple of times. After "Divided Sky," Trey says “That was called ‘Divided Sky,’ our first tune in Telluride in two years, so we’re pretty psyched. I hope you guys can all see Page back here… he’s another... behind the speaker... Page McConnell,” to which Mike responds “Come on by and take a look,” prompting laughter from Page.

After "You Enjoy Myself," Trey says “Okay, we’re going to get our drummer, Jon Fishman, to come out and sing a quick song while I visit the mens’ room.” Mike follows with “We will now have a song from our drummer / maid.” Fishman then responds with “Well, ol' Trey has been drinking some of that Mexican, imported… bottled, Mexican water we brought with us.”

- - - - shntool original tracks

    length     expanded size    cdr  WAVE problems  fmt   ratio  filename
    12:59.05      137426520 B   -b-   --   ---xx   flac  0.5474  01 The Divided Sky.flac
     5:00.05       52932760 B   -b-   --   ---xx   flac  0.5931  02 Funky Bitch.flac
    16:07.57      170712132 B   -b-   --   ---xx   flac  0.5675  03 You Enjoy Myself.flac
     3:08.40       33256444 B   -b-   --   ---xx   flac  0.5734  04 If I Only Had A Brain.flac
     1:47.16       18913024 B   -b-   --   ---xx   flac  0.6008  05 The Oh Kee Pa Ceremony >.flac
     5:19.47       56382068 B   -b-   --   ---xx   flac  0.6229  06 Suzy Greenberg.flac
     1:37.38       17199776 B   -b-   --   ---xx   flac  0.5182  07 Uncle Pen.flac
     4:01.41       42607924 B   -b-   --   ---xx   flac  0.6244  08 Golgi Apparatus >.flac
     3:43.70       39501196 B   -b-   --   ---xx   flac  0.6498  09 Walk Away.flac
     9:37.64      101933996 B   -b-   --   ---xx   flac  0.6047  10 The Lizards.flac
     5:37.43       59548956 B   -b-   --   ---xx   flac  0.6016  11 Slave To The Traffic Light >.flac
     5:53.13       62300428 B   -b-   --   ---xx   flac  0.6230  12 Mikes Song >.flac
     2:12.38       23373244 B   -b-   --   ---xx   flac  0.5584  13 I Am Hydrogen >.flac
     6:06.21       64610856 B   -b-   --   ---xx   flac  0.6248  14 Weekapaug Groove.flac
     5:11.27       54923792 B   -b-   --   ---xx   flac  0.6054  15 Fee >.flac
     2:15.17       23854660 B   -b-   --   ---xx   flac  0.6144  16 My Sweet One >.flac
     1:05.21       11514948 B   -b-   --   ---xx   flac  0.5773  17 Run Like An Antelope.flac
    91:44.37      970992724 B                            0.5917  (17 files)

- - - - original ffp

01 The Divided Sky.flac:2c1671ad4dd34853dc545906712ae465
02 Funky Bitch.flac:a81db951901b02d2b23d0c86ef3c05fb
03 You Enjoy Myself.flac:f706c25792a3bcd389923a0eb7a2f4b4
04 If I Only Had A Brain.flac:35fe8efe569f64ed3aee8ed219441405
05 The Oh Kee Pa Ceremony >.flac:fc58009c869a2e6813e877377e88d278
06 Suzy Greenberg.flac:28254252d6783391678a45bb5320d5d9
07 Uncle Pen.flac:b052052060bc449cfa313be6f827ba86
08 Golgi Apparatus >.flac:ff85d3d3ffcc6249042800b950297004
09 Walk Away.flac:a594d3ea6d4a6f3545b3dcdac917e78c
10 The Lizards.flac:6640429517e801b976d9e772ced37a12
11 Slave To The Traffic Light >.flac:3564e534eae662a6a15289efc1fd036e
12 Mikes Song >.flac:1b33b12d6b3934daf3bf805ebde2797f
13 I Am Hydrogen >.flac:69ae4176d2edd6ceb3fc5dbcf62ff467
14 Weekapaug Groove.flac:7750cc01be8cf2c2de528b863857d45b
15 Fee >.flac:58ca457c98c9a8bb832bea564028500e
16 My Sweet One >.flac:5224b10ff7654d26c555176a9d1e6dad
17 Run Like An Antelope.flac:aeb72832774df079355ab1395c0744ad

- - - - sbe fix by sets in Xact

Fixing [01 The Divided Sky.flac] (12:59.05) --> [01 The Divided Sky.flac] :OK
Fixing [02 Funky Bitch.flac] (5:00.05) --> [02 Funky Bitch.flac] :         OK
Fixing [03 You Enjoy Myself.flac] (16:07.57) --> [03 You Enjoy Myself.flac] :OK
Fixing [04 If I Only Had A Brain.flac] (3:08.40) --> [04 If I Only Had A Brain.flac] :OK
Fixing [05 The Oh Kee Pa Ceremony >.flac] (1:47.16) --> [05 The Oh Kee Pa Ceremony >.flac] :OK
Fixing [06 Suzy Greenberg.flac] (5:19.47) --> [06 Suzy Greenberg.flac] : OK
Fixing [07 Uncle Pen.flac] (1:37.38) --> [07 Uncle Pen.flac] :           OK
Padded last file with 1600 zero-bytes.

Fixing [08 Golgi Apparatus >.flac] (4:01.41) --> [08 Golgi Apparatus >.flac] :  OK
Fixing [09 Walk Away.flac] (3:43.70) --> [09 Walk Away.flac] :  OK
Fixing [10 The Lizards.flac] (9:37.64) --> [10 The Lizards.flac] : OK
Fixing [11 Slave To The Traffic Light >.flac] (5:37.43) --> [11 Slave To The Traffic Light >.flac] :OK
Fixing [12 Mikes Song >.flac] (5:53.13) --> [12 Mikes Song >.flac] :OK
Fixing [13 I Am Hydrogen >.flac] (2:12.38) --> [13 I Am Hydrogen >.flac] : OK
Fixing [14 Weekapaug Groove.flac] (6:06.21) --> [14 Weekapaug Groove.flac] : OK
Fixing [15 Fee >.flac] (5:11.27) --> [15 Fee >.flac] :     OK
Fixing [16 My Sweet One >.flac] (2:15.17) --> [16 My Sweet One >.flac] : OK
Fixing [17 Run Like An Antelope.flac] (1:05.21) --> [17 Run Like An Antelope.flac] :  OK
Padded last file with 1400 zero-bytes.

- - - shntool post sbe fix by sets

    length     expanded size    cdr  WAVE problems  fmt   ratio  filename
    12:59.04      137425052 B   ---   --   ---xx   flac  0.5484  01 The Divided Sky.flac
     5:00.06       52934156 B   ---   --   ---xx   flac  0.5938  02 Funky Bitch.flac
    16:07.56      170710556 B   ---   --   ---xx   flac  0.5680  03 You Enjoy Myself.flac
     3:08.40       33257324 B   ---   --   ---xx   flac  0.5744  04 If I Only Had A Brain.flac
     1:47.16       18912476 B   ---   --   ---xx   flac  0.6019  05 The Oh Kee Pa Ceremony >.flac
     5:19.47       56382188 B   ---   --   ---xx   flac  0.6248  06 Suzy Greenberg.flac
     1:37.39       17202572 B   ---   --   ---xx   flac  0.5193  07 Uncle Pen.flac
     4:01.40       42606524 B   ---   --   ---xx   flac  0.6260  08 Golgi Apparatus >.flac
     3:43.70       39501884 B   ---   --   ---xx   flac  0.6509  09 Walk Away.flac
     9:37.64      101933372 B   ---   --   ---xx   flac  0.6054  10 The Lizards.flac
     5:37.43       59547980 B   ---   --   ---xx   flac  0.6025  11 Slave To The Traffic Light >.flac
     5:53.14       62302172 B   ---   --   ---xx   flac  0.6239  12 Mikes Song >.flac
     2:12.37       23371868 B   ---   --   ---xx   flac  0.5591  13 I Am Hydrogen >.flac
     6:06.21       64611836 B   ---   --   ---xx   flac  0.6260  14 Weekapaug Groove.flac
     5:11.27       54923948 B   ---   --   ---xx   flac  0.6062  15 Fee >.flac
     2:15.17       23854028 B   ---   --   ---xx   flac  0.6150  16 My Sweet One >.flac
     1:05.22       11517788 B   ---   --   ---xx   flac  0.5779  17 Run Like An Antelope.flac
    91:44.38      970995724 B                            0.5926  (17 files)

- - - ffp post sbe fix

01 The Divided Sky.flac:252d382b75c731208f29dd0ca5a14594
02 Funky Bitch.flac:bc899fa7c4323c7bdc3d3b8b2ed740ca
03 You Enjoy Myself.flac:d1d6fa1fa4c17c21a33c248230649855
04 If I Only Had A Brain.flac:29a526987d4953c6ceeea5e53cffbb5c
05 The Oh Kee Pa Ceremony >.flac:64ce2723d0135fb88ca12cf679081c83
06 Suzy Greenberg.flac:add6b18480ac38fafc1e45a9d45a73f6
07 Uncle Pen.flac:bd5add32b2b7fcfa0c7c4665f5a7fd9e
08 Golgi Apparatus >.flac:0ed0b8fcf627563e1e7d6ebd669d3ecc
09 Walk Away.flac:6cb8d0bc8f6f4fa66fb53fd12878f74a
10 The Lizards.flac:53e165211758173d172b40ef3d5d8b37
11 Slave To The Traffic Light >.flac:7ef5ca5a18c3636410d72ab00ab18738
12 Mikes Song >.flac:2252afa3df71d0b34df828becb7c28ff
13 I Am Hydrogen >.flac:2ead754a5e5d032b139028e6510c6754
14 Weekapaug Groove.flac:f406023e73ff0894b82310a542b1c375
15 Fee >.flac:37713507ad4867593d5b41a5dc9e813f
16 My Sweet One >.flac:69c9fb42203b8008da5cd050025a3e6a
17 Run Like An Antelope.flac:95fdb681b558548795c9f15c83d7bef7


Show Checksums
orig-ffp
;flac fingerprints generated by xACT 2.43 on 2018-04-09 11:08:11 +0000

01 The Divided Sky.flac:2c1671ad4dd34853dc545906712ae465
02 Funky Bitch.flac:a81db951901b02d2b23d0c86ef3c05fb
03 You Enjoy Myself.flac:f706c25792a3bcd389923a0eb7a2f4b4
04 If I Only Had A Brain.flac:35fe8efe569f64ed3aee8ed219441405
05 The Oh Kee Pa Ceremony >.flac:fc58009c869a2e6813e877377e88d278
06 Suzy Greenberg.flac:28254252d6783391678a45bb5320d5d9
07 Uncle Pen.flac:b052052060bc449cfa313be6f827ba86
08 Golgi Apparatus >.flac:ff85d3d3ffcc6249042800b950297004
09 Walk Away.flac:a594d3ea6d4a6f3545b3dcdac917e78c
10 The Lizards.flac:6640429517e801b976d9e772ced37a12
11 Slave To The Traffic Light >.flac:3564e534eae662a6a15289efc1fd036e
12 Mikes Song >.flac:1b33b12d6b3934daf3bf805ebde2797f
13 I Am Hydrogen >.flac:69ae4176d2edd6ceb3fc5dbcf62ff467
14 Weekapaug Groove.flac:7750cc01be8cf2c2de528b863857d45b
15 Fee >.flac:58ca457c98c9a8bb832bea564028500e
16 My Sweet One >.flac:5224b10ff7654d26c555176a9d1e6dad
17 Run Like An Antelope.flac:aeb72832774df079355ab1395c0744ad
ffp-fixed
;flac fingerprints generated by xACT 2.43 on 2018-04-09 11:49:54 +0000

01 The Divided Sky.flac:252d382b75c731208f29dd0ca5a14594
02 Funky Bitch.flac:bc899fa7c4323c7bdc3d3b8b2ed740ca
03 You Enjoy Myself.flac:d1d6fa1fa4c17c21a33c248230649855
04 If I Only Had A Brain.flac:29a526987d4953c6ceeea5e53cffbb5c
05 The Oh Kee Pa Ceremony >.flac:64ce2723d0135fb88ca12cf679081c83
06 Suzy Greenberg.flac:add6b18480ac38fafc1e45a9d45a73f6
07 Uncle Pen.flac:bd5add32b2b7fcfa0c7c4665f5a7fd9e
08 Golgi Apparatus >.flac:0ed0b8fcf627563e1e7d6ebd669d3ecc
09 Walk Away.flac:6cb8d0bc8f6f4fa66fb53fd12878f74a
10 The Lizards.flac:53e165211758173d172b40ef3d5d8b37
11 Slave To The Traffic Light >.flac:7ef5ca5a18c3636410d72ab00ab18738
12 Mikes Song >.flac:2252afa3df71d0b34df828becb7c28ff
13 I Am Hydrogen >.flac:2ead754a5e5d032b139028e6510c6754
14 Weekapaug Groove.flac:f406023e73ff0894b82310a542b1c375
15 Fee >.flac:37713507ad4867593d5b41a5dc9e813f
16 My Sweet One >.flac:69c9fb42203b8008da5cd050025a3e6a
17 Run Like An Antelope.flac:95fdb681b558548795c9f15c83d7bef7

Comments
Add Comment
Other Sources (comments)
SBD > Cass(?) > CD Wave >... (1)
Date User Comment