Browse Collections Artists Sources   Search Dates

Add Show    List Management    Help


Phish 04/08/92
El Ray Theater, Albuquerque, NM
Comments Add Comment    Source Collectors    Add to Collection    Add to Want List    History
Source # 141667 Other Sources
Entered by Matt Vernon
Checksums ffp-original , ffp-fixed
Disc Counts 0 / 0
Media Size
Date Circulated
Date Added

04/09/2018
Source Summary flac16 44.1khz Source: Soundboard recorded by Paul Languedoc, provided to Jeff Goldberg by Niel Ringstad via Page McConnell. Transfer: Jeff Goldberg 
Source Information - Download Text | Download Zip
Phish:
"El Rey Theater”
Albuquerque, NM
April 8, 1992

Source: Soundboard recorded by Paul Languedoc, provided to Jeff Goldberg by Niel Ringstad via Page McConnell

Transfer: By Jeff Goldberg
Cassette deck: TASCAM 112RmkII w/ LA-112 balancing kit installed for XLR ports
Analog to digital conversion (ADC): Apogee converters @ 24-bit, 96 kHz & 192 kHz
CPU: 4.0 GHz Intel Core i7
RAM: 32 GB DDR3
Operating System: macOS Sierra (10.12.6)
Digital Audio Workstation: Avid Pro Tools (2018.3)
Waveform Editing: Steinberg WaveLab Pro (9.5)
Restoration: iZotope RX 6 Post Production Suite 2
Mastering: iZotope Ozone 8 Advanced Mastering Suite (8.01)
Process: Like last round, the tapes were played back on a TASCAM 112RmkII (a pro-level, three-head deck with the heads freshly cleaned and demagnetized) using the balanced (+4 dBu) XLR outputs. The signal was sent into Apogee ADCs, and was recorded into Pro Tools at a bit depth of 24-bit and sample rates of either 96 kHz or 192 kHz, depending on the tape (more on this shortly.)
The 4/8/92 show had some unfortunate tape damage on the tapes, which I’m anecdotally guessing was caused by a car cassette player’s auto-reverse feature, based on the damage I saw. This caused a high-pitched crackling effect on several tracks, which I managed to eradicate as best as I could without affecting the sound quality or frequency range. In the case of the damaged 4/8/92 tapes, however, I ended up re-recording the tapes using a doubled sample rate of 192 kHz in order to have more bandwidth with which to work in order to fix the problem.

Post Transfer Processing:
Each file was cleaned-up using RX 6 to not only remove the crackling, but also to get rid of any low-frequency hum (and harmonic intervals thereof) that had made it onto the cassettes via either the recording equipment itself or the electricity configuration of the venue at the time of the recordings. Any tape hiss or noise that had existed above around 3000 Hz (in order to preserve high-end frequencies from sonic elements such as cymbals and microphone sibilance) was then cleared-out.

From there, the waveforms were edited, separated (or combined in some cases) by track within WaveLab, and saved as individual files:
Mastering was completed in Ozone 8 in order to ensure consistent equalizations:
Loudness and normalization was also maximized in order to not only meet LUFS streaming standards, but also have enough volume on various forms of media:
The files were finally dithered down to 16-bit (to make them CD-compatible).

Set 1
01. The Landlady
02. Sparkle
03. Foam
04. Guelah Papyrus
05. Llama
06. Mound
07. Reba
08. Uncle Pen (1)
09. Stash
10. The Squirming Coil >
11. Golgi Apparatus

Set 2
12. The Oh Kee Pa Ceremony >
13. Suzy Greenberg >
14. David Bowie (2)    >
15. The Man Who Stepped Into Yesterday >
16. Avenu Malkenu >
17. The Man Who Stepped Into Yesterday >
18. My Sweet One >
19. Mike’s Song >
20. I Am Hydrogen >
21. Weekapaug Groove (3)
22. The Horse >
23. Silent In The Morning
24. Chalk Dust Torture
25. Cold As Ice >
26. Terrapin(4)    >
27. Cold As Ice
28. Cavern
Encore
29. Sleeping Monkey >
30. Rocky Top

Notes
1 Uncle Pen contains a cut due to a tape-flip
2 David Bowie contains  How High The Moon , R  andom Laugh ,  Simpsons ,  Oom Pa Pa , and  Aw Fuck!  signals
3 Weekapaug Groove contains a cut at around 1:00 due to a tape-flip
4 with bagpipes solo by Fishman
These tapes had physical damage to the actual magnetic material, which caused a high-frequency crackle on several songs. The crackle has been removed as best as possible without jeopardizing the integrity of the sound.
Before Sleeping Monkey, Trey says “Thank you. Well, I definitely see a lot of people who’ve seen us before, and people from the East Coast here tonight... and all these people. So when I say that this is definitely one of my favorite gigs of the whole tour, you’ll know that I don’t say that... it’s not the kind of thing I say every night, and I definitely mean it. This is a great gig; I really like it."



- - - - shntool original tracks

    length     expanded size    cdr  WAVE problems  fmt   ratio  filename
     3:40.31       38880712 B   -b-   --   ---xx   flac  0.6074  01 The Landlady.flac
     4:12.55       44581616 B   -b-   --   ---xx   flac  0.5998  02 Sparkle.flac
     8:02.59       85163688 B   -b-   --   ---xx   flac  0.6194  03 Foam.flac
     5:49.10       61586288 B   -b-   --   ---xx   flac  0.6077  04 Guelah Papyrus.flac
     5:02.53       53397516 B   -b-   --   ---xx   flac  0.6502  05 Llama.flac
     5:46.59       61173324 B   -b-   --   ---xx   flac  0.6046  06 Mound.flac
    11:12.69      118702400 B   -b-   --   ---xx   flac  0.5844  07 Reba.flac
     4:04.40       43136392 B   -b-   --   ---xx   flac  0.5878  08 Uncle Pen.flac
     8:45.28       92676180 B   -b-   --   ---xx   flac  0.5962  09 Stash.flac
     6:28.60       68583404 B   -b-   --   ---xx   flac  0.5879  10 The Squirming Coil >.flac
     4:37.43       48963656 B   -b-   --   ---xx   flac  0.5913  11 Golgi Apparatus.flac
     1:46.41       18794628 B   -b-   --   ---xx   flac  0.5516  12 The Oh Kee Pa Ceremony >.flac
     5:31.08       58408172 B   -b-   --   ---xx   flac  0.5840  13 Suzy Greenberg >.flac
    18:02.07      190882048 B   -b-   --   ---xx   flac  0.5745  14 David Bowie.flac
     3:33.01       37576196 B   -b-   --   ---xx   flac  0.5562  15 The Man Who Stepped Into Yesterday >.flac
     3:06.10       32833244 B   -b-   --   ---xx   flac  0.5880  16 Avenu Malkenu.flac
     1:26.70       15335888 B   -b-   --   ---xx   flac  0.5781  17 > The Man Who Stepped Into Yesterday >.flac
     2:04.44       21977804 B   -b-   --   ---xx   flac  0.5950  18 My Sweet One >.flac
     7:05.05       74981536 B   -b-   --   ---xx   flac  0.6193  19 Mike's Song >.flac
     2:51.01       30167572 B   -b-   --   ---xx   flac  0.6025  20 I Am Hydrogen >.flac
     4:37.62       49008928 B   -b-   --   ---xx   flac  0.5818  21 Weekapaug Groove.flac
     1:02.73       11109496 B   -b-   --   ---xx   flac  0.5551  22 The Horse >.flac
     4:51.21       51381796 B   -b-   --   ---xx   flac  0.5702  23 Silent In The Morning.flac
     5:48.26       61448412 B   -b-   --   ---xx   flac  0.5902  24 Chalk Dust Torture.flac
     2:19.11       24545860 B   -b-   --   ---xx   flac  0.5134  25 Cold As Ice >.flac
     4:43.21       49969668 B   -b-   --   ---xx   flac  0.5272  26 Terrapin.flac
     1:07.09       11841136 B   -b-   --   ---xx   flac  0.5134  27 > Cold As Ice.flac
     5:34.74       59090888 B   -b-   --   ---xx   flac  0.5498  28 Cavern.flac
     6:00.11       63529924 B   -b-   --   ---xx   flac  0.5301  29 Sleeping Monkey >.flac
     2:32.28       26877916 B   -b-   --   ---xx   flac  0.5820  30 Rocky Top.flac
   151:47.55     1606606288 B                            0.5847  (30 files)



- - - - original ffp

01 The Landlady.flac:165f6b557eb2cf8ddff084a30e676e5a
02 Sparkle.flac:8a81934a57095957f4d50e72c133ada5
03 Foam.flac:92a7d1903009bd698812094a38f57dbe
04 Guelah Papyrus.flac:183f6638736e07960c03b3cd1a791869
05 Llama.flac:dbfa6a78e1858e85b20e4cb71064cc3c
06 Mound.flac:ca8551fac01817d1dc3e97b6f37d90b9
07 Reba.flac:14d74bfc5d30f9016290c6f832e0d78d
08 Uncle Pen.flac:e0a2f9f2065e495984fc98750dbc4e37
09 Stash.flac:70fdb8f5380af0777d5c2a615cf9e3df
10 The Squirming Coil >.flac:8d3b9f764235394b8bd157dc42608ebb
11 Golgi Apparatus.flac:d8de833e6bcf870fff83539209f73aae
12 The Oh Kee Pa Ceremony >.flac:1c3be3209c0e2c35b8154cd211d04137
13 Suzy Greenberg >.flac:6004a112d3f5168563a216a3f5c8170f
14 David Bowie.flac:3ade3a31bc899fc21dc40231af2bee83
15 The Man Who Stepped Into Yesterday >.flac:5e4ce1997f67b0a71113ccdb254fca89
16 Avenu Malkenu.flac:da69728dc1d6838a172a1fcbff40d72a
17 > The Man Who Stepped Into Yesterday >.flac:be2fb3b9122eaee7725bcac42fe064c4
18 My Sweet One >.flac:9fd6a37cca93bed23d24fad49677f4ea
19 Mike's Song >.flac:7d603be3d1667cc856c2927dadd43add
20 I Am Hydrogen >.flac:106d0d9e523813fdee4170a440a35baf
21 Weekapaug Groove.flac:cf22f7dd8200f23b0391ba2748ecf8b5
22 The Horse >.flac:bde86cf5172c63b015a9c0dc4fc385e7
23 Silent In The Morning.flac:e1aa161ad468002d18c78e0c06e53151
24 Chalk Dust Torture.flac:fa3bda02848f556588b2a87ffde8a78b
25 Cold As Ice >.flac:cfa375988a4d54ff9fd0f744df686ac2
26 Terrapin.flac:3184f17209905eaaf1c1221cf0a55401
27 > Cold As Ice.flac:0278fbaa2428ebf5fd51b752d40e7c28
28 Cavern.flac:bd32dde334d28221a03e6448e00833af
29 Sleeping Monkey >.flac:e9e6c2942c3368066852e9a27db2c813
30 Rocky Top.flac:683d1a7e88ff1774cee7a1938f52864e


- - - - sbe fix by sets in Xact

Fixing [01 The Landlady.flac] (3:40.31) --> [01 The Landlady.flac] :OK
Fixing [02 Sparkle.flac] (4:12.55) --> [02 Sparkle.flac] :          OK
Fixing [03 Foam.flac] (8:02.59) --> [03 Foam.flac] :                OK
Fixing [04 Guelah Papyrus.flac] (5:49.10) --> [04 Guelah Papyrus.flac] :  OK
Fixing [05 Llama.flac] (5:02.53) --> [05 Llama.flac] :OK
Fixing [06 Mound.flac] (5:46.59) --> [06 Mound.flac] :OK
Fixing [07 Reba.flac] (11:12.69) --> [07 Reba.flac] : OK
Fixing [08 Uncle Pen.flac] (4:04.40) --> [08 Uncle Pen.flac] :OK
Fixing [09 Stash.flac] (8:45.28) --> [09 Stash.flac] : OK
Fixing [10 The Squirming Coil >.flac] (6:28.60) --> [10 The Squirming Coil >.flac] :OK
Fixing [11 Golgi Apparatus.flac] (4:37.43) --> [11 Golgi Apparatus.flac] : OK
Padded last file with 220 zero-bytes.


Fixing [12 The Oh Kee Pa Ceremony >.flac] (1:46.41) --> [12 The Oh Kee Pa Ceremony >.flac] :   OK
Fixing [13 Suzy Greenberg >.flac] (5:31.08) --> [13 Suzy Greenberg >.flac] : OK
Fixing [14 David Bowie.flac] (18:02.07) --> [14 David Bowie.flac] : OK
Fixing [15 The Man Who Stepped Into Yesterday >.flac] (3:33.01) --> [15 The Man Who Stepped Into Yesterday >.flac] : OK
Fixing [16 Avenu Malkenu.flac] (3:06.10) --> [16 Avenu Malkenu.flac] :OK
Fixing [17 > The Man Who Stepped Into Yesterday >.flac] (1:26.70) --> [17 > The Man Who Stepped Into Yesterday >.flac] :OK
Fixing [18 My Sweet One >.flac] (2:04.44) --> [18 My Sweet One >.flac] :OK
Fixing [19 Mike's Song >.flac] (7:05.05) --> [19 Mike's Song >.flac] : OK
Fixing [20 I Am Hydrogen >.flac] (2:51.01) --> [20 I Am Hydrogen >.flac] :OK
Fixing [21 Weekapaug Groove.flac] (4:37.62) --> [21 Weekapaug Groove.flac] : OK
Fixing [22 The Horse >.flac] (1:02.73) --> [22 The Horse >.flac] : OK
Fixing [23 Silent In The Morning.flac] (4:51.21) --> [23 Silent In The Morning.flac] :OK
Fixing [24 Chalk Dust Torture.flac] (5:48.26) --> [24 Chalk Dust Torture.flac] :OK
Fixing [25 Cold As Ice >.flac] (2:19.11) --> [25 Cold As Ice >.flac] :OK
Fixing [26 Terrapin.flac] (4:43.21) --> [26 Terrapin.flac] :OK
Fixing [27 > Cold As Ice.flac] (1:07.09) --> [27 > Cold As Ice.flac] :OK
Fixing [28 Cavern.flac] (5:34.74) --> [28 Cavern.flac] :OK
Fixing [29 Sleeping Monkey >.flac] (6:00.11) --> [29 Sleeping Monkey >.flac] :OK
Fixing [30 Rocky Top.flac] (2:32.28) --> [30 Rocky Top.flac] :OK
Padded last file with 1324 zero-bytes.



- - - shntool post sbe fix by sets

    length     expanded size    cdr  WAVE problems  fmt   ratio  filename
     3:40.30       38878604 B   ---   --   ---xx   flac  0.6086  01 The Landlady.flac
     4:12.55       44582204 B   ---   --   ---xx   flac  0.6006  02 Sparkle.flac
     8:02.59       85163612 B   ---   --   ---xx   flac  0.6200  03 Foam.flac
     5:49.10       61587164 B   ---   --   ---xx   flac  0.6086  04 Guelah Papyrus.flac
     5:02.53       53397500 B   ---   --   ---xx   flac  0.6510  05 Llama.flac
     5:46.59       61173212 B   ---   --   ---xx   flac  0.6054  06 Mound.flac
    11:12.69      118703132 B   ---   --   ---xx   flac  0.5851  07 Reba.flac
     4:04.40       43135724 B   ---   --   ---xx   flac  0.5886  08 Uncle Pen.flac
     8:45.28       92675900 B   ---   --   ---xx   flac  0.5971  09 Stash.flac
     6:28.60       68584364 B   ---   --   ---xx   flac  0.5886  10 The Squirming Coil >.flac
     4:37.43       48963980 B   ---   --   ---xx   flac  0.5923  11 Golgi Apparatus.flac
     1:46.40       18792524 B   ---   --   ---xx   flac  0.5530  12 The Oh Kee Pa Ceremony >.flac
     5:31.09       58409612 B   ---   --   ---xx   flac  0.5856  13 Suzy Greenberg >.flac
    18:02.07      190881308 B   ---   --   ---xx   flac  0.5755  14 David Bowie.flac
     3:33.01       37575596 B   ---   --   ---xx   flac  0.5567  15 The Man Who Stepped Into Yesterday >.flac
     3:06.10       32833964 B   ---   --   ---xx   flac  0.5890  16 Avenu Malkenu.flac
     1:26.70       15335084 B   ---   --   ---xx   flac  0.5785  17 > The Man Who Stepped Into Yesterday >.flac
     2:04.45       21979484 B   ---   --   ---xx   flac  0.5960  18 My Sweet One >.flac
     7:05.05       74981804 B   ---   --   ---xx   flac  0.6206  19 Mike's Song >.flac
     2:51.01       30166796 B   ---   --   ---xx   flac  0.6031  20 I Am Hydrogen >.flac
     4:37.62       49008668 B   ---   --   ---xx   flac  0.5831  21 Weekapaug Groove.flac
     1:02.73       11108540 B   ---   --   ---xx   flac  0.5558  22 The Horse >.flac
     4:51.21       51381836 B   ---   --   ---xx   flac  0.5709  23 Silent In The Morning.flac
     5:48.26       61448396 B   ---   --   ---xx   flac  0.5916  24 Chalk Dust Torture.flac
     2:19.12       24547868 B   ---   --   ---xx   flac  0.5140  25 Cold As Ice >.flac
     4:43.20       49968284 B   ---   --   ---xx   flac  0.5283  26 Terrapin.flac
     1:07.10       11842364 B   ---   --   ---xx   flac  0.5139  27 > Cold As Ice.flac
     5:34.73       59089340 B   ---   --   ---xx   flac  0.5515  28 Cavern.flac
     6:00.11       63529916 B   ---   --   ---xx   flac  0.5309  29 Sleeping Monkey >.flac
     2:32.29       26881052 B   ---   --   ---xx   flac  0.5837  30 Rocky Top.flac
   151:47.56     1606607832 B                            0.5857  (30 files)



- - - ffp post sbe fix

01 The Landlady.flac:a15b826c371e4c39ef221731025c68d5
02 Sparkle.flac:b141e5f7eb6f4f2e499ec551efd1d783
03 Foam.flac:236421d5827ee436435fa6e6dde65dce
04 Guelah Papyrus.flac:bfcdb5a2f9743c604eae26b9389089e4
05 Llama.flac:82fbea863344f6b4ba8891dd0b7e71d4
06 Mound.flac:8aa0ccab585493bb5362415c48f47af6
07 Reba.flac:1faa7dd9bcea4945544dff06996bbed8
08 Uncle Pen.flac:a6506bc50dcb1d9cf2d67a0867ac33de
09 Stash.flac:bd36dc1ac511ff07a6a86d1c52d73118
10 The Squirming Coil >.flac:ee654ed6f7d4bdb9eeaf3b4a8b81fe81
11 Golgi Apparatus.flac:30a598e2d472661d33d748dc13e1d466
12 The Oh Kee Pa Ceremony >.flac:a208cdf63a456c4e27606ef499f989c1
13 Suzy Greenberg >.flac:796c1858126c87f424dbfaac15a89fe2
14 David Bowie.flac:fba2f2844e850abc59e5a5f876371031
15 The Man Who Stepped Into Yesterday >.flac:bea9d8b1344273bbe098a58aefb3f0df
16 Avenu Malkenu.flac:bb7f56881fe183d6521fd2c82d438272
17 > The Man Who Stepped Into Yesterday >.flac:1229f3d40b95cb346eae5aa8a33259cb
18 My Sweet One >.flac:12b73d9401827cde95602b354fbee455
19 Mike's Song >.flac:feaf4301c4fa1e203e545a871130659b
20 I Am Hydrogen >.flac:3627fafc8298eac0603516d1f65d5e2c
21 Weekapaug Groove.flac:e8a1895f7e5815ae4728a468d300c782
22 The Horse >.flac:953f4819b7a01bf0e98b636b0eb274a2
23 Silent In The Morning.flac:a8b7d29c13ee12ea62654469f856b44a
24 Chalk Dust Torture.flac:d34c9730e8c30e6e528ae0c6e02fef0f
25 Cold As Ice >.flac:2a4b8eb1e65b46e61eea3edf3f96ef82
26 Terrapin.flac:eb4903be2a85015824c7f911a0bc41d7
27 > Cold As Ice.flac:12019f9ad641419fb823385c8ac58aae
28 Cavern.flac:a3cf06d1ab224f41812641725876da45


Show Checksums
ffp-original
01 The Landlady.flac:165f6b557eb2cf8ddff084a30e676e5a
02 Sparkle.flac:8a81934a57095957f4d50e72c133ada5
03 Foam.flac:92a7d1903009bd698812094a38f57dbe
04 Guelah Papyrus.flac:183f6638736e07960c03b3cd1a791869
05 Llama.flac:dbfa6a78e1858e85b20e4cb71064cc3c
06 Mound.flac:ca8551fac01817d1dc3e97b6f37d90b9
07 Reba.flac:14d74bfc5d30f9016290c6f832e0d78d
08 Uncle Pen.flac:e0a2f9f2065e495984fc98750dbc4e37
09 Stash.flac:70fdb8f5380af0777d5c2a615cf9e3df
10 The Squirming Coil >.flac:8d3b9f764235394b8bd157dc42608ebb
11 Golgi Apparatus.flac:d8de833e6bcf870fff83539209f73aae
12 The Oh Kee Pa Ceremony >.flac:1c3be3209c0e2c35b8154cd211d04137
13 Suzy Greenberg >.flac:6004a112d3f5168563a216a3f5c8170f
14 David Bowie.flac:3ade3a31bc899fc21dc40231af2bee83
15 The Man Who Stepped Into Yesterday >.flac:5e4ce1997f67b0a71113ccdb254fca89
16 Avenu Malkenu.flac:da69728dc1d6838a172a1fcbff40d72a
17 > The Man Who Stepped Into Yesterday >.flac:be2fb3b9122eaee7725bcac42fe064c4
18 My Sweet One >.flac:9fd6a37cca93bed23d24fad49677f4ea
19 Mike's Song >.flac:7d603be3d1667cc856c2927dadd43add
20 I Am Hydrogen >.flac:106d0d9e523813fdee4170a440a35baf
21 Weekapaug Groove.flac:cf22f7dd8200f23b0391ba2748ecf8b5
22 The Horse >.flac:bde86cf5172c63b015a9c0dc4fc385e7
23 Silent In The Morning.flac:e1aa161ad468002d18c78e0c06e53151
24 Chalk Dust Torture.flac:fa3bda02848f556588b2a87ffde8a78b
25 Cold As Ice >.flac:cfa375988a4d54ff9fd0f744df686ac2
26 Terrapin.flac:3184f17209905eaaf1c1221cf0a55401
27 > Cold As Ice.flac:0278fbaa2428ebf5fd51b752d40e7c28
28 Cavern.flac:bd32dde334d28221a03e6448e00833af
29 Sleeping Monkey >.flac:e9e6c2942c3368066852e9a27db2c813
30 Rocky Top.flac:683d1a7e88ff1774cee7a1938f52864e
ffp-fixed
01 The Landlady.flac:a15b826c371e4c39ef221731025c68d5
02 Sparkle.flac:b141e5f7eb6f4f2e499ec551efd1d783
03 Foam.flac:236421d5827ee436435fa6e6dde65dce
04 Guelah Papyrus.flac:bfcdb5a2f9743c604eae26b9389089e4
05 Llama.flac:82fbea863344f6b4ba8891dd0b7e71d4
06 Mound.flac:8aa0ccab585493bb5362415c48f47af6
07 Reba.flac:1faa7dd9bcea4945544dff06996bbed8
08 Uncle Pen.flac:a6506bc50dcb1d9cf2d67a0867ac33de
09 Stash.flac:bd36dc1ac511ff07a6a86d1c52d73118
10 The Squirming Coil >.flac:ee654ed6f7d4bdb9eeaf3b4a8b81fe81
11 Golgi Apparatus.flac:30a598e2d472661d33d748dc13e1d466
12 The Oh Kee Pa Ceremony >.flac:a208cdf63a456c4e27606ef499f989c1
13 Suzy Greenberg >.flac:796c1858126c87f424dbfaac15a89fe2
14 David Bowie.flac:fba2f2844e850abc59e5a5f876371031
15 The Man Who Stepped Into Yesterday >.flac:bea9d8b1344273bbe098a58aefb3f0df
16 Avenu Malkenu.flac:bb7f56881fe183d6521fd2c82d438272
17 > The Man Who Stepped Into Yesterday >.flac:1229f3d40b95cb346eae5aa8a33259cb
18 My Sweet One >.flac:12b73d9401827cde95602b354fbee455
19 Mike's Song >.flac:feaf4301c4fa1e203e545a871130659b
20 I Am Hydrogen >.flac:3627fafc8298eac0603516d1f65d5e2c
21 Weekapaug Groove.flac:e8a1895f7e5815ae4728a468d300c782
22 The Horse >.flac:953f4819b7a01bf0e98b636b0eb274a2
23 Silent In The Morning.flac:a8b7d29c13ee12ea62654469f856b44a
24 Chalk Dust Torture.flac:d34c9730e8c30e6e528ae0c6e02fef0f
25 Cold As Ice >.flac:2a4b8eb1e65b46e61eea3edf3f96ef82
26 Terrapin.flac:eb4903be2a85015824c7f911a0bc41d7
27 > Cold As Ice.flac:12019f9ad641419fb823385c8ac58aae
28 Cavern.flac:a3cf06d1ab224f41812641725876da45
29 Sleeping Monkey >.flac:d73ed0559a13947776951ecde51b4834
30 Rocky Top.flac:bef6a06439625f8a4726267be1d3e7a2

Comments
Add Comment
Date User Comment