Browse Collections Artists Sources   Search Dates

Add Show    List Management    Help


Grateful Dead 04/16/83
Meadowlands Arena, East Rutherford, NJ
Comments Add Comment    Source Collectors    Add to Collection    Add to Want List    History
Source # 141681 Other Sources
Entered by Matt Vernon
Checksums ffp , flac-md5
Disc Counts 0 / 0
Media Size
Date Circulated
Date Added

04/11/2018
Source Summary flac16/44.1 First Gen AUD Cassette: Maxell UDXLI90 set1; Maxell XLII90 set2 Master was: Beyer M201 hypercardiod XY 120ft from stacks DFC->Sony TCD5M|TDK MA 90 No Dolby Transfer: Nakamichi LX-5->Dogstar cables-> Tascam DR-680|SD Recorded By: Tom Pinney Transferred By: Kyle Holbrook 
  Archive
Source Information - Download Text | Download Zip
Grateful Dead
Date 1983-04-16
Meadowlands Arena
East Rutherford NJ

This is a 16 bit 44.1khz version

d1t01 - New Minglewood Blues
d1t02 - Tennessee Jed       /
d1t03 - Me and My Uncle >
d1t04 - Mexicali Blues      /
d1t05 - Bird Song
d1t06 - My Brother Esau    //  !
d1t07 - West L.A. Fadeaway /
d1t08 - Maybe You Know How I Feel /  !
d1t09 - Looks Like Rain
d1t10 - Touch of Grey

d2t01 - China Cat Sunflower > I Know You Rider
d2t02 - Uncle John's Band >   #
d2t03 - Truckin' >        &
d2t04 - drums            //*
d2t05 - space >
d2t06 - Black Queen        +
d2t07 - Iko Iko            +
d2t08 - bobstar >
d2t09 - The Other One >
d2t10 - Black Peter >
d2t11 - One More Saturday Night +
d2t12 - encore Johnny B. Goode +

Show notes:
+ With Stephen Stills
# Twilight Zone tease before
& Spoonful Tease at end
/ pause between songs
// flip
* missed rest of drums unitl space
! minor tape glitch


Recording Information
First set is VERY hissy. My guess is the master was run at low levels and the copy made 35 years ago was bumped up to compensate.

First Gen AUD Cassette: Maxell UDXLI90 set1; Maxell XLII90 set2
Master was: Beyer M201 hypercardiod XY 120ft from stacks DFC->Sony TCD5M|TDK              MA 90 No Dolby
Transfer: Nakamichi LX-5->Dogstar cables-> Tascam DR-680|SD
Recorded By: Tom Pinney
Transferred By: Kyle Holbrook
============================================================================
Tom went down to these shows with his roommate John Borg as John was from New Jersey and Meadowlands was his hometown arena. They were able to get tickets and gear into both shows, so we have these Beyer M201 recordings. Aside from getting a call from a payphone the next morning telling us Stephen Stills played, we didn't know anything about the music until Tom brought the tapes home. This was loooong before the internet or cell phones. I am not sure how long it took for us to even hear the tapes as he went to the Orono ME show on 4-19 before I met up with him again to drive to New Haven on 4-22/23.

For this show, Bob starts off Minglewood with a "T for those Jersey girls" setting up the audience for a pretty high energy show.  The Birdsong early in the set provides another lift then the Looks Like Rain just put the killer mood out there; the audience is hooked by the end and dancing hard for the unexpected Touch closer. Phil is LOUD at the beginning of Black Queen. Johnny B Goode in four part harmony, Stills adds sweet tones after Bob tells the audience, "We're gonna play one everyone knows"!

- - - - - - -  shntool sbe’s are at end of sets

    length     expanded size    cdr  WAVE problems  fmt   ratio  filename
     9:02.27       95672348 B   ---   --   ---xx   flac  0.5580  gd1983-04-16beyerm201-16s1t01.flac
     8:08.64       86233772 B   ---   --   ---xx   flac  0.5659  gd1983-04-16beyerm201-16s1t02.flac
     3:44.43       39614780 B   ---   --   ---xx   flac  0.5579  gd1983-04-16beyerm201-16s1t03.flac
     4:59.02       52748348 B   ---   --   ---xx   flac  0.5685  gd1983-04-16beyerm201-16s1t04.flac
    10:56.38      115807820 B   ---   --   ---xx   flac  0.5610  gd1983-04-16beyerm201-16s1t05.flac
     5:47.48       61323740 B   ---   --   ---xx   flac  0.5645  gd1983-04-16beyerm201-16s1t06.flac
     8:11.46       86720636 B   ---   --   ---xx   flac  0.5744  gd1983-04-16beyerm201-16s1t07.flac
     4:43.45       50027084 B   ---   --   ---xx   flac  0.6283  gd1983-04-16beyerm201-16s1t08.flac
     8:23.68       88889180 B   ---   --   ---xx   flac  0.5771  gd1983-04-16beyerm201-16s1t09.flac
     6:09.22       65142688 B   -b-   --   ---xx   flac  0.5930  gd1983-04-16beyerm201-16s1t10.flac
    13:54.58      147254060 B   ---   --   ---xx   flac  0.6019  gd1983-04-16beyerm201-16s2t01.flac
    10:14.04      108319052 B   ---   --   ---xx   flac  0.6116  gd1983-04-16beyerm201-16s2t02.flac
     8:40.14       91760972 B   ---   --   ---xx   flac  0.6125  gd1983-04-16beyerm201-16s2t03.flac
     8:59.12       95107868 B   ---   --   ---xx   flac  0.5745  gd1983-04-16beyerm201-16s2t04.flac
     0:49.20        8690684 B   ---   --   ---xx   flac  0.5519  gd1983-04-16beyerm201-16s2t05.flac
     7:13.31       76454156 B   ---   --   ---xx   flac  0.6111  gd1983-04-16beyerm201-16s2t06.flac
     7:46.01       82204796 B   ---   --   ---xx   flac  0.6198  gd1983-04-16beyerm201-16s2t07.flac
     1:48.27       19114748 B   ---   --   ---xx   flac  0.5867  gd1983-04-16beyerm201-16s2t08.flac
     6:23.05       67573004 B   ---   --   ---xx   flac  0.6083  gd1983-04-16beyerm201-16s2t09.flac
     8:33.41       90589676 B   ---   --   ---xx   flac  0.5724  gd1983-04-16beyerm201-16s2t10.flac
     4:43.36       50005916 B   ---   --   ---xx   flac  0.6188  gd1983-04-16beyerm201-16s2t11.flac
     3:55.55       41582260 B   -b-   --   ---xx   flac  0.5971  gd1983-04-16beyerm201-16s2t12.flac
   153:08.31     1620837588 B                            0.5881  (22 files)





Show Checksums
ffp
gd1983-04-16beyerm201-16s1t01.flac:fd63a6b278c9afcf2539e55ba1ac5855
gd1983-04-16beyerm201-16s1t02.flac:a3741d00f9a53342d87a7e5faa968144
gd1983-04-16beyerm201-16s1t03.flac:02ed49e1c469e2a575f52c087132db43
gd1983-04-16beyerm201-16s1t04.flac:8fd6aee6aa291b868b0a1b10b10c3070
gd1983-04-16beyerm201-16s1t05.flac:98fe3e8c88c1ac0d221a91fc726de03b
gd1983-04-16beyerm201-16s1t06.flac:4530dd1cf24df2d34b2661f5635de7f8
gd1983-04-16beyerm201-16s1t07.flac:41424dab2f8392d2f5ac3ba439f307c6
gd1983-04-16beyerm201-16s1t08.flac:bbf1aaa22dbabcda29ef50ca82840978
gd1983-04-16beyerm201-16s1t09.flac:88a981bce7eadcb1d928ff1107f4d38b
gd1983-04-16beyerm201-16s1t10.flac:333ef0677488714843a001a15bae2498
gd1983-04-16beyerm201-16s2t01.flac:a548c1a418bf738b31112f9a9fea215c
gd1983-04-16beyerm201-16s2t02.flac:ee3fac9a432bd53d97ace16f276d5f23
gd1983-04-16beyerm201-16s2t03.flac:4125d3d343963e23c7b103f0828b9d2c
gd1983-04-16beyerm201-16s2t04.flac:84e1d32e677aedae3be9921461157e5b
gd1983-04-16beyerm201-16s2t05.flac:7d710cd6fce5c24faabffcc851e06338
gd1983-04-16beyerm201-16s2t06.flac:28dc8ae35dd3ce13b091d8d2e546d337
gd1983-04-16beyerm201-16s2t07.flac:a59686701b8bd57d9e61dddd6d569b7c
gd1983-04-16beyerm201-16s2t08.flac:a338ceb754333a87c6c0df65d169ec08
gd1983-04-16beyerm201-16s2t09.flac:958a212c08ca4fd8082d106bae6b4527
gd1983-04-16beyerm201-16s2t10.flac:2abb926689788b40f42f6cb75011bc7d
gd1983-04-16beyerm201-16s2t11.flac:1394a07e2c17ed067131c1f0f1478995
gd1983-04-16beyerm201-16s2t12.flac:b493c7cdd83d2e52f63b38f894062330
flac-md5
f5ab34e285c06387fb8aad55ae7242af *gd1983-04-16beyerm201-16s1t01.flac
1de75ad63dd1b22f387d8e48d4ffd13d *gd1983-04-16beyerm201-16s1t02.flac
bc70e667937a5cf663b8cf87aee69977 *gd1983-04-16beyerm201-16s1t03.flac
62e2c445060c0e7be9879107a9018b42 *gd1983-04-16beyerm201-16s1t04.flac
683c4a6cbe17229eb8d61f6d922a01ca *gd1983-04-16beyerm201-16s1t05.flac
e08ac9bd4e3ca02805a5150fb2c5c216 *gd1983-04-16beyerm201-16s1t06.flac
4f04ffeefa8acead3d2aa84dfd81a89a *gd1983-04-16beyerm201-16s1t07.flac
15aa377fc9d3c1d47ebaf55ee48ba193 *gd1983-04-16beyerm201-16s1t08.flac
623c30f47150dc51539b10b2c5857b47 *gd1983-04-16beyerm201-16s1t09.flac
8ef1c33310c1c4c20263a6afc42145b5 *gd1983-04-16beyerm201-16s1t10.flac
cf4f1b118446e1dbcc64c87cff74134b *gd1983-04-16beyerm201-16s2t01.flac
1ecd9f2c295ebd8c5bc77c40e4f217a3 *gd1983-04-16beyerm201-16s2t02.flac
bafa65d3e313c259a0fbf32045ab9b40 *gd1983-04-16beyerm201-16s2t03.flac
55232ce29cd843bc5b90e47a41a3a0f4 *gd1983-04-16beyerm201-16s2t04.flac
c57d291ceaa4b014857784d07df6ab71 *gd1983-04-16beyerm201-16s2t05.flac
8ad66950c05e9c45f18c902fe4af57a9 *gd1983-04-16beyerm201-16s2t06.flac
264e685c2921b60bcb266b8b59c43877 *gd1983-04-16beyerm201-16s2t07.flac
cd67bd5146051f71100426135982aa38 *gd1983-04-16beyerm201-16s2t08.flac
f74516caf92380b3ceb45c4eec33ebfd *gd1983-04-16beyerm201-16s2t09.flac
b5023824b4fdc1eb8dc0e75ac5c33b15 *gd1983-04-16beyerm201-16s2t10.flac
8d85ab266544629d3d1e88e76d00ecea *gd1983-04-16beyerm201-16s2t11.flac
7ffe710437889c8406219cbd108cf2f3 *gd1983-04-16beyerm201-16s2t12.flac

Comments
Add Comment
Other Sources (comments)
AudMC > DAT > CDWAV > SHN;... (0) S : MC > DAT > CDR > EAC >... (6) (FOB) Beyer M160 -> Sony D5... (1) flac16; mixed... (0) Set 2 Only: Source:... (0) flac16; Source: 2... (0) flac24; Updated... (0) flac16; (FOB)... (0) flac16; Soundboard... (0) flac24; Set 2... (0) flac16; Set 2... (0) flac16; 2 source... (0) flac16; source: aud... (0) flac24; source: aud... (0) flac1648; Master... (0) flac16; Partial Set... (2) flac24/48 First... (0) flac24; Set 2... (0)
Date User Comment