Browse Collections Artists Sources   Search Dates

Add Show    List Management    Help


Grateful Dead 04/17/83
Meadowlands Arena, East Rutherford, NJ
Comments Add Comment    Source Collectors    Add to Collection    Add to Want List    History
Source # 141683 Other Sources
Entered by Matt Vernon
Checksums ffp , flac-md5
Disc Counts 0 / 0
Media Size
Date Circulated
Date Added

04/11/2018
Source Summary flac24/48 First Gen AUD Cassette: Maxell UDXLI90 set1; Maxell XLII90 set2 Master was: Beyer M201 hypercardiod XY 120ft from stacks DFC->Sony TCD5M|TDK MA 90 No Dolby Transfer: Nakamichi LX-5->Dogstar cables-> Tascam DR-680|SD Recorded By: Tom Pinney Transferred By: Kyle Holbrook 
  Archive
Source Information - Download Text | Download Zip
Grateful Dead
Date 1983-04-17
Meadowlands Arena
East Rutherford NJ

This is a 24 bit 48khz fileset

d1t01 - Touch of Grey          #
d1t02 - Little Red Rooster
d1t03 - Dupree's Diamond Blues >
d1t04 - Beat it on Down the Line  /
d1t05 - It Must Have Been the Roses
d1t06 - Cassidy
d1t07 - Big Railroad Blues
d1t08 - My Brother Esau
d1t09 - Peggy-O
d1t10 - Let it Grow
d1t11 - Might As Well

d2t01 - Help on the Way > Slipknot! > Franklin's Tower > &+
d2t02 - Man Smart/Woman Smarter    +
d2t03 - Playin' in the Band >
d2t04 - space >                  //
d2t05 - drumspace >
d2t06 - Love the One You're With >   *
d2t07 - The Wheel  >
d2t08 - Playin' in the Band >
d2t09 - Throwin' Stones >
d2t10 - Not Fade Away           //^  *
d2t11 - Crowd Not Fade AWay chant >
d2t12 - encore Brokedown Palace

Show notes:
* With Stephen Stills; only "Love The One You're With"

Recording Information
# Lots of level and tonal changes- probably both PA and deck adjustments
&  Slight tape glitches
+ levels turned up end of Franklins > Womens = bass distortion
/ paused between songs
// Tape Flip
//^ cut-Tape swap at very end

First Gen AUD Cassette: Maxell XLII90 x 2
Master was: Beyer M201 hypercardiod XY 70ft from stacks DFC->Sony TCD5M|TDK              MA 90 No Dolby
Transfer: Nakamichi LX-5->Dogstar cables-> Tascam DR-680|SD
Recorded By: Tom Pinney
Transferred by: Kyle Holbrook
============================================================================
Tom's second effort in the Byrne came out pretty nice after all these years. Another Stephen Stills guest appearance playing "Love the One You're With" out of space. A lot of people looking back on it poo poo STills' appearance but Tom told me it was great and the vibe of the audience was so high after he played each night. Said that Phil was visibly psyched onstage to be playing with Stephen. Mickey was sporting some new toys on this tour and the space on this night is a prime example of their rhythm devilness!

For this show, Brent comes out smoking on the Little Red Rooster Hammond B3 tones. Bob of course did his slide thing but it was Brent's additions which had the crowd soaring. Another appearance of the elusive Duprees Diamond Blues kicked in a cowboy and classic GD tunes first set with a twelve minute Let it Grow putting the final touches on a great set.


- - - - shntool

    length     expanded size    cdr  WAVE problems  fmt   ratio  filename
     6:16.267     108364844 B   cxx   --   ---xx   flac  0.7087  gd1983-04-17beyerm201s1t01.flac
     9:14.227     159617324 B   cxx   --   ---xx   flac  0.7183  gd1983-04-17beyerm201s1t02.flac
     6:15.400     108115244 B   cxx   --   ---xx   flac  0.7307  gd1983-04-17beyerm201s1t03.flac
     3:36.587      62377004 B   cxx   --   ---xx   flac  0.7459  gd1983-04-17beyerm201s1t04.flac
     5:07.387      88527404 B   cxx   --   ---xx   flac  0.7119  gd1983-04-17beyerm201s1t05.flac
     5:32.267      95692844 B   cxx   --   ---xx   flac  0.7395  gd1983-04-17beyerm201s1t06.flac
     5:40.027      97927724 B   cxx   --   ---xx   flac  0.7546  gd1983-04-17beyerm201s1t07.flac
     5:14.333      90528044 B   cxx   --   ---xx   flac  0.7529  gd1983-04-17beyerm201s1t08.flac
     7:49.053     135087404 B   cxx   --   ---xx   flac  0.7396  gd1983-04-17beyerm201s1t09.flac
    12:47.293     220980524 B   cxx   --   ---xx   flac  0.7828  gd1983-04-17beyerm201s1t10.flac
     4:26.606      76782596 B   cxx   --   ---xx   flac  0.7827  gd1983-04-17beyerm201s1t11.flac
    20:58.427     362426924 B   cxx   --   ---xx   flac  0.7213  gd1983-04-17beyerm201s2t01.flac
     9:41.213     167389484 B   cxx   --   ---xx   flac  0.7179  gd1983-04-17beyerm201s2t02.flac
    11:21.240     196197164 B   cxx   --   ---xx   flac  0.7142  gd1983-04-17beyerm201s2t03.flac
     2:44.160      47278124 B   cxx   --   ---xx   flac  0.6998  gd1983-04-17beyerm201s2t04.flac
     9:46.853     169013804 B   cxx   --   ---xx   flac  0.7042  gd1983-04-17beyerm201s2t05.flac
     6:37.907     114597164 B   cxx   --   ---xx   flac  0.7325  gd1983-04-17beyerm201s2t06.flac
     5:12.320      89948204 B   cxx   --   ---xx   flac  0.7235  gd1983-04-17beyerm201s2t07.flac
     3:54.133      67430444 B   cxx   --   ---xx   flac  0.7198  gd1983-04-17beyerm201s2t08.flac
     9:29.373     163979564 B   cxx   --   ---xx   flac  0.7133  gd1983-04-17beyerm201s2t09.flac
     8:35.213     148381484 B   cxx   --   ---xx   flac  0.7120  gd1983-04-17beyerm201s2t10.flac
     4:04.280      70352684 B   cxx   --   ---xx   flac  0.6672  gd1983-04-17beyerm201s2t11.flac
     5:22.808      92968748 B   cxx   --   ---xx   flac  0.7080  gd1983-04-17beyerm201s2t12.flac
   169:47.374    2933964748 B                            0.7269  (23 files)





Show Checksums
ffp
gd1983-04-17beyerm201s1t01.flac:eddda63c5f34dc0671c9f3382170ba52
gd1983-04-17beyerm201s1t02.flac:001f69203644980a96ec0a26585bba26
gd1983-04-17beyerm201s1t03.flac:b700bd2381626084bc5b721efcfa20ae
gd1983-04-17beyerm201s1t04.flac:a402a2d86687788394d8f5b281580071
gd1983-04-17beyerm201s1t05.flac:adfd82a4893ebeb7b94514e31cfe519e
gd1983-04-17beyerm201s1t06.flac:9cadc6b284f229ab580c9e02635c4f18
gd1983-04-17beyerm201s1t07.flac:954dceaffa728fbd9920f6bd3c3697dd
gd1983-04-17beyerm201s1t08.flac:f398c8faded0c65600a18bec863e536c
gd1983-04-17beyerm201s1t09.flac:8aa6ef46b535bb900547b8982c0700fd
gd1983-04-17beyerm201s1t10.flac:d6a39ff6027593b48e336ebbc039fb27
gd1983-04-17beyerm201s1t11.flac:cf7c555b1023b9764cfcc7662e8a8f71
gd1983-04-17beyerm201s2t01.flac:c25a81ad726fb340f1f9559128acdc3b
gd1983-04-17beyerm201s2t02.flac:8dc52c518006d7a64e22c33a4f89906e
gd1983-04-17beyerm201s2t03.flac:9599668f445c94a98b59e41d1d62934c
gd1983-04-17beyerm201s2t04.flac:4fbbe3eea71e250e588d4085b7d92d36
gd1983-04-17beyerm201s2t05.flac:92a747d610b5f4fdd4cfe48c329a99d0
gd1983-04-17beyerm201s2t06.flac:159bcaebd5062f1c9c62f4634c74ff26
gd1983-04-17beyerm201s2t07.flac:ab95136573ee870b518136b2b5483f99
gd1983-04-17beyerm201s2t08.flac:a2e4443fe2a6cd3cfb0b132bf3fa3777
gd1983-04-17beyerm201s2t09.flac:82c7d913739447ee0bf00383d2a18176
gd1983-04-17beyerm201s2t10.flac:8021cad1d5693ea5d6bdbdad7e6a1233
gd1983-04-17beyerm201s2t11.flac:fe11d79634362d4b6ef296f2b0ee17ec
gd1983-04-17beyerm201s2t12.flac:1f1d80eef1b2ffee490bbc75ba63b359
flac-md5
bcbca70c9df8c26fa4681c60b9d35ecd *gd1983-04-17beyerm201s1t01.flac
5aac4e9d8ff4c2fe882e63313ae80a40 *gd1983-04-17beyerm201s1t02.flac
f492f953c72d1b7337c0404035540e57 *gd1983-04-17beyerm201s1t03.flac
d7c8fa51288be6686cd1a4ebed6b9197 *gd1983-04-17beyerm201s1t04.flac
14b7245780d6aac9d62b1d50af8772bb *gd1983-04-17beyerm201s1t05.flac
c8bc67411cee8d8a385e3d2ed42222a7 *gd1983-04-17beyerm201s1t06.flac
b6cd0de15b7929f3b419afa82333c5f2 *gd1983-04-17beyerm201s1t07.flac
26646cc437ffbd93e7f61e035b2ebf82 *gd1983-04-17beyerm201s1t08.flac
ce0a4bc9b28a1b1a94213faf81697969 *gd1983-04-17beyerm201s1t09.flac
80092793b7abe3eb3353a5f92c381952 *gd1983-04-17beyerm201s1t10.flac
ec6d6691377ba2900440e4f7e4880451 *gd1983-04-17beyerm201s1t11.flac
07fbb22866c2b1f8756f762183df4126 *gd1983-04-17beyerm201s2t01.flac
8630398289c223aa3436162b5f38306e *gd1983-04-17beyerm201s2t02.flac
62dc2222b415eba9ac6d5deaa7f19b54 *gd1983-04-17beyerm201s2t03.flac
efb7777cbe063cb9a47344f85ef7fec7 *gd1983-04-17beyerm201s2t04.flac
40bdb52b133038868c26ec9a754a359d *gd1983-04-17beyerm201s2t05.flac
ac4ecf6c7dc1e2e20c57ac8874b220b2 *gd1983-04-17beyerm201s2t06.flac
425fb82d11f58d1a705a9368c73173b2 *gd1983-04-17beyerm201s2t07.flac
a8679b87f9ca2c7b457a537ef8c031f2 *gd1983-04-17beyerm201s2t08.flac
1ea2952f85595fa6a87afd06909c27c8 *gd1983-04-17beyerm201s2t09.flac
e50ad9d46cd49ffd5ae8d341733b611d *gd1983-04-17beyerm201s2t10.flac
d65e3547fdbdedd05b50102e68c10000 *gd1983-04-17beyerm201s2t11.flac
0ad150e73271d4c5dc99fcd14780aebe *gd1983-04-17beyerm201s2t12.flac

Comments
Add Comment
Other Sources (comments)
AudMC > DAT > CDWAV > SHN;... (0) SBD : MC > C > DAT > CDR... (4) (FOB/3 mic Mix) Three Beyer... (0) flac16; Source: 2... (1) flac24; Updated... (0) flac16; Updated... (2) flac16; Soundboard... (0) flac24; Set 1... (0) flac16; Set 1... (0) flac24; Partial Show... (0) flac16; Partial Show... (0) flac16; 2 source... (0) flac16; SBD >... (0) flac1648; Master... (0) flac16/44.1khz ... (0)
Date User Comment