Browse Collections Artists Sources   Search Dates

Add Show    List Management    Help


Grateful Dead 06/10/76
Music Hall, Boston, MA
Comments Add Comment    Source Collectors    Add to Collection    Add to Want List    History
Source # 141690 Other Sources
Entered by Matt Vernon
Checksums ffp , flac-md5
Disc Counts 0 / 0
Media Size
Date Circulated
Date Added
04/12/2018
04/12/2018
Source Summary flac16; Lineage: SBD > Master Reel (7in 7.5ips 1/2trk) > PCM; Transfer Info: PCM (Sony SL-10)> Sony PCM-601ESD > Behringer Ultramatch Pro > Tascam DA-3000 > Samplitude Pro X3 Suite > FLAC/16; All Transfers and Mastering by Charlie Miller 
  Archive
Source Information - Download Text | Download Zip
Grateful Dead - June 10, 1976
Boston Music Hall - Boston, MA

Lineage:
SBD > Master Reel (7in 7.5ips 1/2trk) > PCM

Tansfer Info:
PCM (Sony SL-10)> Sony PCM-601ESD > Behringer Ultramatch Pro >
Tascam DA-3000 > Samplitude Pro X3 Suite > FLAC/16
(3 Discs Audio / 1 DVD FLAC)

All Transfers and Mastering by Charlie Miller
[email protected]
April 12, 2018

Notes:
-- This is pretty much mono
-- Thanks to Tim Dalton for the PCM
-- Two sets of masters were used to make this show complete

Set 1:
01 - Promised Land
02 - Sugaree
03 - Cassidy
04 - They Love Each Other
05 - The Music Never Stopped
06 - Brown Eyed Women
07 - Lazy Lightning >
08 - Supplication
09 - Row Jimmy
10 - Big River
11 - Mission In The Rain
12 - Looks Like Rain
13 - Might As Well

Set2:
14 - Tuning
15 - Samson And Delilah
16 - Help On The Way >
17 - Slipknot! >
18 - Franklin's Tower
19 - Let It Grow
20 - Friend Of The Devil
21 - Playing In The Band >
22 - Dancin' In The Street >
23 - U.S. Blues


SHNTOOL OUTPUT:
    length     expanded size    cdr  WAVE problems  fmt   ratio  filename
     4:22.67       46374428 B   ---   --   ---xx   flac  0.5199  01 Promised Land.flac
    11:03.41      117049676 B   ---   --   ---xx   flac  0.4873  02 Sugaree.flac
     5:06.61       54121916 B   ---   --   ---xx   flac  0.5160  03 Cassidy.flac
    10:03.41      106465676 B   ---   --   ---xx   flac  0.4671  04 They Love Each Other.flac
     6:29.49       68734892 B   ---   --   ---xx   flac  0.4979  05 The Music Never Stopped.flac
     8:01.60       84989564 B   ---   --   ---xx   flac  0.4578  06 Brown Eyed Women.flac
     2:52.38       30430220 B   ---   --   ---xx   flac  0.5488  07 Lazy Lightning.flac
     5:08.51       54451196 B   ---   --   ---xx   flac  0.4940  08 Supplication.flac
    10:19.19      109236332 B   ---   --   ---xx   flac  0.4886  09 Row Jimmy.flac
     7:33.52       80031548 B   ---   --   ---xx   flac  0.5061  10 Big River.flac
     9:03.20       95832284 B   ---   --   ---xx   flac  0.4690  11 Mission In The Rain.flac
    10:23.37      109984268 B   ---   --   ---xx   flac  0.4681  12 Looks Like Rain.flac
     6:04.08       64228460 B   ---   --   ---xx   flac  0.5468  13 Might As Well.flac
     1:43.14       18202172 B   ---   --   ---xx   flac  0.3548  14 Tuning.flac
     7:12.50       76322444 B   ---   --   ---xx   flac  0.5235  15 Samson And Delilah.flac
     4:55.74       52212092 B   ---   --   ---xx   flac  0.5306  16 Help On The Way.flac
     6:58.69       73897532 B   ---   --   ---xx   flac  0.5464  17 Slipknot!.flac
    12:03.55      127666604 B   ---   --   ---xx   flac  0.5112  18 Franklin's Tower.flac
    12:06.28      128132300 B   ---   --   ---xx   flac  0.5187  19 Let It Grow.flac
     9:39.51      102255596 B   ---   --   ---xx   flac  0.4816  20 Friend Of The Devil.flac
    14:14.37      150732668 B   ---   --   ---xx   flac  0.4916  21 Playing In The Band.flac
    11:01.43      116701580 B   ---   --   ---xx   flac  0.5350  22 Dancing In The Street.flac
     7:05.17       75010028 B   ---   --   ---xx   flac  0.5173  23 US Blues.flac
   183:35.07     1943063476 B                            0.5001  (23 files)


Show Checksums
ffp
01 Promised Land.flac:ec5ae0bb68f32df89751b4bfdf1c80cb
02 Sugaree.flac:61f87f6250f6409aeab885c13ae15e1b
03 Cassidy.flac:e9601baa93f034b2fc234c7b467a6437
04 They Love Each Other.flac:ccdf29cf42e7060a166a749c3db1f7de
05 The Music Never Stopped.flac:275d631c76033f86ef12174f819c2aeb
06 Brown Eyed Women.flac:1892009d56dc841db27112edad2f845d
07 Lazy Lightning.flac:1fa4fb481a6ef2ca4030e548b5af443f
08 Supplication.flac:cc9ff96022bf3f8df69e1a62c509e4bc
09 Row Jimmy.flac:e4ac8df884167d8e68c2069602c40b73
10 Big River.flac:13d841f546536fd614f88838e9b0b509
11 Mission In The Rain.flac:3bae831d56bfe008cbb033cd6f5bf279
12 Looks Like Rain.flac:796595e7bc1c45420cf5f7cf28561b3d
13 Might As Well.flac:21ca8a06d41acb72162a3ae491b4508e
14 Tuning.flac:0054df7b957a44a957f02051fa558efb
15 Samson And Delilah.flac:820efe828e57fb9b61b190cd439204ef
16 Help On The Way.flac:09bdb168b3466a11a501760c701afa11
17 Slipknot!.flac:5a1818493fc0af4fdfe9679f14bb4dd0
18 Franklin's Tower.flac:6741b8365aa858c6ca53cdf79dac57f0
19 Let It Grow.flac:9ec4dcea2dd2a700e093f049fab4580a
20 Friend Of The Devil.flac:93f74e99ca1af6141b0e3a2ed8a265fb
21 Playing In The Band.flac:1c3fbc7b941dbe8ce5ac4cdc1ef13cf6
22 Dancing In The Street.flac:73ab962e8279bce357139f3631a22df8
23 US Blues.flac:12719d832546233cea71d1e3caa38755
flac-md5
29839e8162ba634ee6ff3e0f5fcd0a90 *01 Promised Land.flac
2a6cac00552f20de90f9d3fe3e990cf0 *02 Sugaree.flac
ed0d0523a947c0b63131ecaf9e208844 *03 Cassidy.flac
9ff350561287451392aad66103087eb3 *04 They Love Each Other.flac
1b880d2566dc7c80533c1037f2c37b63 *05 The Music Never Stopped.flac
762d00447c0b1d4e738ff0f011e15753 *06 Brown Eyed Women.flac
58a8470b196cf09822a3ec8f70798699 *07 Lazy Lightning.flac
7bc4c58c8d7d389d1160cda2e6536e18 *08 Supplication.flac
9ee8258ca2d90d62cd676c126b2ba63c *09 Row Jimmy.flac
89ed2b510f8410d6e7e1000929a79b94 *10 Big River.flac
753785c4803c0db20b900dbea48014f7 *11 Mission In The Rain.flac
4238cc6035ce1458da590841b868f4c3 *12 Looks Like Rain.flac
befdf28739ccc0cb059086acefcfe767 *13 Might As Well.flac
51f4287dcce36a9b93e6e4e6d6ea0c9f *14 Tuning.flac
956d87ba9b33d58fc9f090e7dc943f68 *15 Samson And Delilah.flac
617d4aa84abdd83ad8c477ea82948f4b *16 Help On The Way.flac
944d7bcf0fc2efe7d3034156aaf32927 *17 Slipknot!.flac
ddd0a3391219b3073d86598d648b5188 *18 Franklin's Tower.flac
844261878ded98f9f6877b05efc0fffb *19 Let It Grow.flac
d1200afc7d9c98592a49e44dfa144fd8 *20 Friend Of The Devil.flac
735cd121097ba572af6632c28a886842 *21 Playing In The Band.flac
a11c9e16faecdc7c584ebc0ece5f12ab *22 Dancing In The Street.flac
7e367258e4fb5bc6dbd653758aec7068 *23 US Blues.flac

Comments
Add Comment
Other Sources (comments)
??? > CD > EAC > SHN; via... (0) FOB Sony 152 cassette deck... (2) SBD -> Rm -> PCM -> Dat ->... (4) Recorded by Jerry Moore;... (0) Recorded by Jimmy Warburton... (0) Bertha Remaster of the... (2) flac16; Source Info:... (1) flac16; Matrix 2... (0) DTS Audio 5.1; SBD... (0) flac24; Source: AKG... (0)
Date User Comment