Browse Collections Artists Sources   Search Dates

Add Show    List Management    Help


Grateful Dead 12/03/81
Dane County Coliseum, Madison, WI
Comments Add Comment    Source Collectors    Add to Collection    Add to Want List    History
Source # 141696 Other Sources
Entered by Matt Vernon
Checksums flac-md5 , ffp
Disc Counts 0 / 0
Media Size Compressed: 1.08 GB (1163919360 bytes)
Uncompressed: 1.74 GB (1868580384 bytes)
Date Circulated
Date Added
04/13/2018
04/13/2018
Source Summary flac16; Matrix 2 Source Mix - SBD (shnid = 108335) Recording Info:SBD -> Cassette Master -> Reel -> Dat (48k); Transfer Info:Dat (Sony R500) -> Sound devices 744T -> Samplitude Professional v11.03 -> FLAC; All Transfers and Mastering By Charlie Miller + AUD (shnid = 28901) Recording by Doug Mow. 2 Nak 700 shotguns > Sony TC-D5M > Maxell XLIIS tape. A true gem. Seeded to bt.etree.org on 04/08/05 by Alex Ford. - matrix mixing by Kevin Tobin 
  Archive
Source Information - Download Text | Download Zip
The Grateful Dead
December 3, 1981
Dane County Coliseum,
Madison, WI

SBD + AUD Matrix 2 Source Mix

Set 1:
d1t01 - Jack Straw
d1t02 - They Love Each Other ->
d1t03 - Me And My Uncle ->
d1t04 - Big River
d1t05 - Loser ->
d1t06 - C C Rider
d1t07 - Althea ->
d1t08 - Beat It On Down The Line
d1t09 - Cassidy
d1t10 - Deep Elem Blues
d1t11 - I Need A Miracle ->
d1t12 - Bertha

Set 2:
d2t01 - Scarlet Begonias ->
d2t02 - Fire On The Mountain ->
d2t03 - Estimated Prophet ->
d2t04 - He's Gone ->
d2t05 - Drums ->
d3t01 - Space ->
d3t02 - Spanish Jam ->
d3t03 - Truckin' ->
d3t04 - Black Peter ->
d3t05 - Around And Around ->
d3t06 - Johnny B. Goode

Encore:
d3t07 - It's All Over Now, Baby Blue

Jerry Garcia - Guitar
Bob Weir - Guitar
Brent Mydland - Keyboards
Phil Lesh - Bass
Bill Kreutzmann - Drums
Mickey Hart - Drums

Audio Information:
Original  SBD (shnid = 108335)

Recording Info:
SBD -> Cassette Master -> Reel -> Dat (48k)

Transfer Info:
Dat (Sony R500) -> Sound devices 744T -> Samplitude Professional v11.03 -> FLAC
(3 Discs Audio / 2 Discs FLAC)

All Transfers and Mastering By Charlie Miller
[email protected]
June 11, 2010

Patch Info:
Nakamichi 300 -> Cassette Master -> SHN (shnid=6143) supplies:
Jack Straw (0:00 - 0:27)
Loser (6:01 - 6:17)
Estimated Prophet (6:58 - 7:12)
Black Peter (9:17 - 9:31)

Notes:
-- Set 2 is seamless
-- Thanks to Rob Eaton for lending me his Dats

Original  AUD (shnid = 28901)

Source: 2 Nak 700 shotguns > Sony TC-D5M > Maxell XLIIS tape.
Mic Config: "primitive DIN" pointing the mics directly at the stacks forming a "Y".
Mic Location: will update
Lineage: Nak ZX7 > Sony D5 > UA5 > IBM R40/Win XP Pro/Sound Forge 5.0/CDR > EAC (no errors)> WinXP Pro > Disc 3 joined and retracked* > FLAC Frontend > FLAC16.

Taper: Doug Mow
Transfer from Nak ZX7 through CDR by Doug Mow
Transfer from CDR through FLAC16 by Alex Ford on 04/08/05.

Both SBD and  AUD were patched with the following:
AUD (shnid = no shnid)

David Minor low gen vhs
---------------------------------------------------------
- Mixed by [email protected]
- FLAC conversion 13-APR-2018 - Trader Little Helper
- Tagged 13-APR-2018 - Tag&Rename
---------------------------------------------------------
Brokedown House Production

    length     expanded size    cdr  WAVE problems  fmt   ratio  filename
     7:23.51       78265196 B   ---   --   -----    wav  1.0000  gd1981-12-03d1t01.wav
     6:58.60       73876364 B   ---   --   -----    wav  1.0000  gd1981-12-03d1t02.wav
     3:10.01       33518396 B   ---   --   -----    wav  1.0000  gd1981-12-03d1t03.wav
     8:27.59       89573612 B   ---   --   -----    wav  1.0000  gd1981-12-03d1t04.wav
     7:02.55       74570204 B   ---   --   -----    wav  1.0000  gd1981-12-03d1t05.wav
     9:39.21      102185036 B   ---   --   -----    wav  1.0000  gd1981-12-03d1t06.wav
     8:42.47       92191388 B   ---   --   -----    wav  1.0000  gd1981-12-03d1t07.wav
     3:07.23       33040940 B   ---   --   -----    wav  1.0000  gd1981-12-03d1t08.wav
     6:46.69       71780732 B   ---   --   -----    wav  1.0000  gd1981-12-03d1t09.wav
     6:55.74       73380092 B   ---   --   -----    wav  1.0000  gd1981-12-03d1t10.wav
     3:34.10       37773164 B   ---   --   -----    wav  1.0000  gd1981-12-03d1t11.wav
     6:38.13       70237820 B   ---   --   -----    wav  1.0000  gd1981-12-03d1t12.wav
    12:13.61      129444716 B   ---   --   -----    wav  1.0000  gd1981-12-03d2t01.wav
    10:03.48      106482140 B   ---   --   -----    wav  1.0000  gd1981-12-03d2t02.wav
    10:08.02      107255948 B   ---   --   -----    wav  1.0000  gd1981-12-03d2t03.wav
    13:17.70      140755484 B   ---   --   -----    wav  1.0000  gd1981-12-03d2t04.wav
     9:08.68       96827180 B   ---   --   -----    wav  1.0000  gd1981-12-03d2t05.wav
     5:06.37       54065468 B   ---   --   -----    wav  1.0000  gd1981-12-03d3t01.wav
     4:32.46       48089036 B   ---   --   -----    wav  1.0000  gd1981-12-03d3t02.wav
     7:48.62       82701068 B   ---   --   -----    wav  1.0000  gd1981-12-03d3t03.wav
    10:24.18      110115980 B   ---   --   -----    wav  1.0000  gd1981-12-03d3t04.wav
     3:42.34       39240812 B   ---   --   -----    wav  1.0000  gd1981-12-03d3t05.wav
     4:21.32       46115708 B   ---   --   -----    wav  1.0000  gd1981-12-03d3t06.wav
     7:17.03       77093900 B   ---   --   -----    wav  1.0000  gd1981-12-03d3t07.wav
   176:32.64     1868580384 B                            1.0000  (24 files)



Show Checksums
flac-md5
0ca05630ec967cf6a895c8c5a107c697 *gd1981-12-03d1t01.flac
fbe899a7668cdfea39b3d6179e3a99f2 *gd1981-12-03d1t02.flac
ef51bac26c94b643404126ffa4d18498 *gd1981-12-03d1t03.flac
bf5d07cc93f6e9ef57bb6066a5ff6bde *gd1981-12-03d1t04.flac
3f992b61195db6819b76310584dc18a2 *gd1981-12-03d1t05.flac
93dc76493620adafd1eb7d7ca05e9102 *gd1981-12-03d1t06.flac
79f2927c178a4e096cbfc1d0cfec6117 *gd1981-12-03d1t07.flac
b23c9327c2fee0f2ac82fd32350cc346 *gd1981-12-03d1t08.flac
df9fba36aadf047d69b1b1370423e90a *gd1981-12-03d1t09.flac
562ded055e3516a17a2d7df0944a4c94 *gd1981-12-03d1t10.flac
f6ec42dc16ba2a493280eb0fa3bd01f2 *gd1981-12-03d1t11.flac
2581936e3f0c62bdecf6f637f91b2d32 *gd1981-12-03d1t12.flac
702672c772cd938323724e51959c1bc6 *gd1981-12-03d2t01.flac
6dc5558c5b5cf7bfa2ad9154d5c62e60 *gd1981-12-03d2t02.flac
681868d37bbcabbd727be2c2c1d88709 *gd1981-12-03d2t03.flac
cd9154f3214515c9935e48e6bf35d79c *gd1981-12-03d2t04.flac
0d8313541e36aafbf3a25105b9f09cf8 *gd1981-12-03d2t05.flac
5922db661c40e39b3419457849281a1d *gd1981-12-03d3t01.flac
869faadcf1d11e525c84ec7fac37d7a3 *gd1981-12-03d3t02.flac
0044ae0bc60c7ac25841c8fa84fae23b *gd1981-12-03d3t03.flac
f59f1eab5e831fafedc27952a847d984 *gd1981-12-03d3t04.flac
e711c1cc51fc9a1f1b8c32a581bfb8bd *gd1981-12-03d3t05.flac
efe592e1c30843ff24e9cdc76f1ceb93 *gd1981-12-03d3t06.flac
c97f6022b6989bc923dd581f8df5cb74 *gd1981-12-03d3t07.flac
ffp
gd1981-12-03d1t01.flac:d2455075b08d89c35909561ee4de37cc
gd1981-12-03d1t02.flac:6e37aafff7b68fece8ab271f3b28aa98
gd1981-12-03d1t03.flac:4a1fb93bd55bf5dc51f95957bdb2e7a0
gd1981-12-03d1t04.flac:ca1a943377f949936a02aefe1f03b9c7
gd1981-12-03d1t05.flac:5c5b7d2628a56b7c647f9d2027d13639
gd1981-12-03d1t06.flac:be1aefb0bfe6aaca7a60d9e7b1bf1190
gd1981-12-03d1t07.flac:39512ba8dab3628fc4344389085631bc
gd1981-12-03d1t08.flac:b2a66340160222880d9709a7679a550e
gd1981-12-03d1t09.flac:cfa52554ed788970f006ab4480b6d4f9
gd1981-12-03d1t10.flac:80dacccdaafba4b58f7beef3eb28c40b
gd1981-12-03d1t11.flac:b4000d068c540a5ef4ffc6e423a05f13
gd1981-12-03d1t12.flac:d7ee28c25ca534c56906a50d2afb9e2d
gd1981-12-03d2t01.flac:ac228f70e0cb54ee9469632640c5beba
gd1981-12-03d2t02.flac:dd21c83b461ef04576be6c362398391e
gd1981-12-03d2t03.flac:b516e4d74ca02e8adeb963730c3ad0ae
gd1981-12-03d2t04.flac:241ab9e36e0a85168e0b99cff9a6f323
gd1981-12-03d2t05.flac:0832c1f680f06098071a27d366364cc0
gd1981-12-03d3t01.flac:c934cff5c92036a4350a1893304db73f
gd1981-12-03d3t02.flac:d076c1a0e20d73571d0d9e4d408c83f6
gd1981-12-03d3t03.flac:5236c75333c33dbc787fbe1cd6861a4d
gd1981-12-03d3t04.flac:947da1bb088d69a169ed46ac01dfd2ab
gd1981-12-03d3t05.flac:ab4c25ee812066e9c2f03a6c5cc1b49a
gd1981-12-03d3t06.flac:7b1f0084be20fff8ea86c778c5765f2a
gd1981-12-03d3t07.flac:3c76af6fb8aa8a58e8ca472c3ccc6eb1

Comments
Add Comment
Other Sources (comments)
Nak 300's > Sony D5; via... (8) flac16; Recording by... (3) flac16; Recording... (0) flac16; Set 2 Only,... (0) DTS-Audio-CD 5.1... (0) flac16/48kHz; 5.1... (0) flac16/48kHz; 5.1... (0)
Date User Comment