Browse Collections Artists Sources   Search Dates

Add Show    List Management    Help


Bob Weir & Rob Wasserman 09/02/89
Merriweather Post Pavilion, Columbia, MD
Comments Add Comment    Source Collectors    Add to Collection    Add to Want List    History
Source # 141699 Other Sources
Entered by ziko
Checksums ffp
Disc Counts 0 / 0
Media Size Compressed: 271 MB (284164096 bytes)
Date Circulated
Date Added
04/13/2018
04/13/2018
Source Summary flac 1648; Schoeps CMC 42s > Panasonic SV-255 > Denon R90-DT DAT Master 110 degrees ORTF DAT archived and transferred by Stuccoholmes DAT-> Sony R-500-> SP/DIF-> RME Fireface UC-> USB 2.0-> Hewlett-Packard EliteBook 8460p-> Adobe Audition 3.0.1 Edited and Mastered by Jamie Waddell Tracked, Packed and Flac'd by John Wenzel 
Source Information - Download Text | Download Zip
Bob Weir and Rob Wasserman
Saturday, September 2, 1989
Merriweather Post Pavilion,
Columbia, MD

Schoeps CMC 42s > Panasonic SV-255 > Denon R90-DT DAT Master
110 degrees ORTF

DAT archived and transferred by Stuccoholmes
DAT-> Sony R-500-> SP/DIF-> RME Fireface UC-> USB 2.0->
Hewlett-Packard EliteBook 8460p-> Adobe Audition 3.0.1
Edited and Mastered by Jamie Waddell
Tracked, Packed and Flac'd by John Wenzel
16 bit 48 kHz Flac level 8


01 //Festival
02 Twilight Time
03 Fever
04 Desolation Row
05 Shade Of Grey
06 The Winners
07 Looks Like Rain
08 Easy To Slip >
09 Bass Solo >
10 Throwing Stones

Notes: Opened for the Jerry Garcia Band.
Recording location not noted on J-card but sound is very close to stage.
Festival fades in during it's last minute.

originally shared at www.shnflac.net

    length     expanded size    cdr  WAVE problems  fmt   ratio  filename
     0:43.773       8404524 B   cxx   --   ---xx   flac  0.4976  01 - Festival.flac
     3:01.760      34897964 B   cxx   --   ---xx   flac  0.4805  02 - Twilight Time.flac
     4:28.053      51466284 B   cxx   --   ---xx   flac  0.4514  03 - Fever.flac
     7:42.827      88862764 B   cxx   --   ---xx   flac  0.5077  04 - Desolation Row.flac
     4:37.600      53299244 B   cxx   --   ---xx   flac  0.4882  05 - Touch Of Grey.flac
     4:20.453      50007084 B   cxx   --   ---xx   flac  0.5198  06 - The Winners.flac
     7:57.787      91735084 B   cxx   --   ---xx   flac  0.4933  07 - Looks Like Rain.flac
     5:58.240      68782124 B   cxx   --   ---xx   flac  0.4988  08 - Easy To Slip.flac
     2:52.827      33182764 B   cxx   --   ---xx   flac  0.4352  09 - Bass solo.flac
     8:06.173      93345324 B   cxx   --   ---xx   flac  0.5283  10 - Throwing Stones.flac
    49:49.493     573983160 B                            0.4959  (10 files)


Show Checksums
ffp
01 - Festival.flac:4c0257eca2740dce062081b4db12aa5f
02 - Twilight Time.flac:4c58599062c607645efb6763406e6024
03 - Fever.flac:1c00473a2200504b97058db6843d6d1c
04 - Desolation Row.flac:0dabb491ca738aa5cb874ad81709795f
05 - Touch Of Grey.flac:7ca80024a0d20f070375d4c2dc383fe9
06 - The Winners.flac:30f15bbd0a8b08730a3ac3e33b303806
07 - Looks Like Rain.flac:8904a4e845409fd8b96103785ed71302
08 - Easy To Slip.flac:ab34edda9f8a0ddb619b43deb793c52c
09 - Bass solo.flac:10bc2fb119e58a7c1e2dec2ef1eaf2bb
10 - Throwing Stones.flac:4dc7829e2203f887cc6770a6845b25a5

Comments
Add Comment
Other Sources (comments)
Source: Unknown Audience... (0) FOB Schoeps CMC34 @ 110... (0)
Date User Comment