Browse Collections Artists Sources   Search Dates

Add Show    List Management    Help


Grateful Dead 04/22/83
Veterans' Memorial Coliseum, New Haven, CT
Comments Add Comment    Source Collectors    Add to Collection    Add to Want List    History
Source # 141733 Other Sources
Entered by Matt Vernon
Checksums ffp , flac-md5
Disc Counts 0 / 0
Media Size
Date Circulated
Date Added

04/19/2018
Source Summary flac16/44.1 First Gen AUD Cassette: Maxell XLII90 x 2 no NR Master was: Nakamichi 700 wcp1 caps 70ft from stacks DFC->Sony TCD5M|TDK MA 90 No Dolby (arrived late and patched) Transfer: Nakamichi LX-5->Dogstar cables-> Tascam DR-680|SD Recorded By: Tom Pinney assist to Executive Crew Transferred by: Kyle Holbrook 
  Archive
Source Information - Download Text | Download Zip
Grateful Dead
Date 1983-04-22
Veterans Memorial Coliseum
New Haven CT

This is a 16 bit 44.1khz file set

d1t01 - Funiculi Funicula
d1t02 - Feel Like a Stranger
d1t03 - Bird Song
d1t04 - C.C. Rider
d1t05 - Row Jimmy           //
d1t06 - Mama Tried
d1t07 - Mexicali Blues
d1t08 - Cold Rain and Snow
d1t09 - My Brother Esau
d1t10 - Deal

d2t01 - Help on the Way > Slipknot! > Franklin's Tower >
d2t02 - Samson and Delilah
d2t03 - Ship of Fools   >
d2t04 - Man Smart/Woman Smarter   //
d2t05 - space  /
d2t06 - drumspace  /+
d2t07 - Truckin' >
d2t08 - Spoonful >
d2t09 - Stella Blue >
d2t10 - Around and Around >   #
d2t11 - Good Lovin'   /^
d2t12 - encore Baby Blue  /*

Show Notes:
"Funiculi Funicula" & "Beer Barrel Polka" tunings before "Stranger" - last "Spoonful": 10-15-81 [94]
Recording Notes:
// Tape flip
/  Tape paused when band left stage
/+ Resumed for Mickey on bells/band back onstage
#  Intermittent Right channel cut outs
/# cut near end
/* One quick cut out near end from lead deck flip?


First Gen AUD Cassette: Maxell XLII90 x 2 no NR
Master was: Nakamichi 700 wcp1 caps 70ft from stacks DFC->Sony TCD5M|TDK MA 90 No Dolby (arrived late and patched)
Transfer: Nakamichi LX-5->Dogstar cables-> Tascam DR-680|SD
Recorded By: Tom Pinney assist to Executive Crew
Transferred by: Kyle Holbrook

=============================================================================
This was my first show to get shut out of. Tom and I met up in New Haven, got parked near each other, then waited for his friends to show with his ticket. They had no extras so after I met some of his friends from Maine, several of whom I became fast friends with, I was searching for a ticket. I remember sitting in Tom's car in a lot a few blocks down from the coliseum after looking for a ticket for an hour or so. We were on traffic ramps and all around the place, no tickets to be had. So we decided he would go in with the deck and see if he could patch. After Tom had gone to the show I got out of the car just to look around, there were some heads still looking for tickets and some still arriving into town who probably had tickets. Still I was shut out this night.

I saw this dude walking from the bridge area toward our lot holding a tie dye. He indicated it was for sale. I had never contemplated buying a tie dye, my SU deadhead friends just made their own, although this one DID have a different look to it. It was Martin of Not Fade Away, and I soon met his partner Dean and since I was so intrigued by their designs I obtained his contact information. It was my very first experience of being outside a show while the band is playing and realizing the parking lot had people in it; that there might be something to do if shut out aside from wait in the car. In 1982 this crowd was small, able to "hide in plain sight" mostly from the authorities.

After the show we got a motel room toward the outskirts of town and wound up copying tapes from one deck to the other in the hotel room. We probably used batteries as we would not ordinarily have a wall charger for those old Sony TCD5's. One of Tom's friends, Greg Martens I met that day would play a huge role in my life, both Grateful Dead and more. We wound up in my car together the next morning because we needed tapes and I figured the best place to get them was Uncle Steve's in NYC. When Greg got in my car, I said, "before we take off I have something I should tell you", he said, "I have something to tell you"- we laughed our asses off as we carefully drove to the city. We became friends before the drive to NYC and back was over. In NYC, we bought a Sony TCD5M for Tom and a bunch of tapes. Greg recalled that we bought so much stuff with the tape deck and accessories that Uncle Steve's wound up only charging us $10 for $100 worth of tapes (Plus we were buying Metal tapes which probably confused them).

Truckin' > Spoonful > Stella Blue worth he price of admission.!

- - - - - sbe’s at end of sets

    length     expanded size    cdr  WAVE problems  fmt   ratio  filename
     1:44.32       18420908 B   ---   --   ---xx   flac  0.5187  gd1983-04-22nak700pinney-16s1t01.flac
     9:18.56       98562956 B   ---   --   ---xx   flac  0.5967  gd1983-04-22nak700pinney-16s1t02.flac
    11:03.42      117052028 B   ---   --   ---xx   flac  0.5769  gd1983-04-22nak700pinney-16s1t03.flac
     9:05.42       96236828 B   ---   --   ---xx   flac  0.5832  gd1983-04-22nak700pinney-16s1t04.flac
    11:29.38      121629020 B   ---   --   ---xx   flac  0.5716  gd1983-04-22nak700pinney-16s1t05.flac
     3:19.72       35272988 B   ---   --   ---xx   flac  0.5635  gd1983-04-22nak700pinney-16s1t06.flac
     5:30.37       58299068 B   ---   --   ---xx   flac  0.5716  gd1983-04-22nak700pinney-16s1t07.flac
     6:49.34       72227612 B   ---   --   ---xx   flac  0.5794  gd1983-04-22nak700pinney-16s1t08.flac
     5:48.73       61558940 B   ---   --   ---xx   flac  0.5730  gd1983-04-22nak700pinney-16s1t09.flac
     8:48.26       93201184 B   -b-   --   ---xx   flac  0.5847  gd1983-04-22nak700pinney-16s1t10.flac
    21:14.56      224865356 B   ---   --   ---xx   flac  0.5830  gd1983-04-22nak700pinney-16s2t01.flac
    11:09.02      118016348 B   ---   --   ---xx   flac  0.5672  gd1983-04-22nak700pinney-16s2t02.flac
     7:11.11       76054316 B   ---   --   ---xx   flac  0.5468  gd1983-04-22nak700pinney-16s2t03.flac
     6:41.63       70884620 B   ---   --   ---xx   flac  0.5652  gd1983-04-22nak700pinney-16s2t04.flac
     2:14.29       23705852 B   ---   --   ---xx   flac  0.5456  gd1983-04-22nak700pinney-16s2t05.flac
    16:13.36      171721916 B   ---   --   ---xx   flac  0.5248  gd1983-04-22nak700pinney-16s2t06.flac
     7:06.17       75186428 B   ---   --   ---xx   flac  0.6042  gd1983-04-22nak700pinney-16s2t07.flac
     2:31.16       26674076 B   ---   --   ---xx   flac  0.5696  gd1983-04-22nak700pinney-16s2t08.flac
     9:03.16       95822876 B   ---   --   ---xx   flac  0.5456  gd1983-04-22nak700pinney-16s2t09.flac
     3:44.02       39518348 B   ---   --   ---xx   flac  0.5890  gd1983-04-22nak700pinney-16s2t10.flac
     5:28.59       57998012 B   ---   --   ---xx   flac  0.6013  gd1983-04-22nak700pinney-16s2t11.flac
     7:26.63       78823452 B   -b-   --   ---xx   flac  0.5590  gd1983-04-22nak700pinney-16s2t12.flac
   173:03.73     1831733132 B                            0.5701  (22 files)





Show Checksums
ffp
gd1983-04-22nak700pinney-16s1t01.flac:baa3d3b03110f897b8df0117f2d37474
gd1983-04-22nak700pinney-16s1t02.flac:dbd6b0f7f2062b8493893b387065916c
gd1983-04-22nak700pinney-16s1t03.flac:b62e87f5084ebeed6aaec8313bbf217c
gd1983-04-22nak700pinney-16s1t04.flac:7dc432cc0f55a84644ce9c9df64e19d2
gd1983-04-22nak700pinney-16s1t05.flac:1ca3f2e788f022dff4ace47bf91d5c4c
gd1983-04-22nak700pinney-16s1t06.flac:8810bfd05ee2df1f4fdfbc2c272ee921
gd1983-04-22nak700pinney-16s1t07.flac:23c5e632878032260608d7c95ce421e4
gd1983-04-22nak700pinney-16s1t08.flac:1843feb663c3495649a124feb9be0b8d
gd1983-04-22nak700pinney-16s1t09.flac:8d80abfc068dc884969d29bbc743bfeb
gd1983-04-22nak700pinney-16s1t10.flac:4fe99c36536111a6466bbb638d8fe128
gd1983-04-22nak700pinney-16s2t01.flac:dd85daf7e591ab7335cab671c28bb99a
gd1983-04-22nak700pinney-16s2t02.flac:333fcb2e8d2046c1b205d09f432f668b
gd1983-04-22nak700pinney-16s2t03.flac:609114bba08bab98de046ee2a7d57b91
gd1983-04-22nak700pinney-16s2t04.flac:43ae7ed435964e6446e38ac05081650e
gd1983-04-22nak700pinney-16s2t05.flac:6c625568a98bdb9b305b0eb8b5865f64
gd1983-04-22nak700pinney-16s2t06.flac:28ab68e8e01428dff1311f0cfbf0b7fb
gd1983-04-22nak700pinney-16s2t07.flac:550bf13d80d005efb827e01d95214e86
gd1983-04-22nak700pinney-16s2t08.flac:fad594be638b118edab9adbabb31f499
gd1983-04-22nak700pinney-16s2t09.flac:8aa002cc015d0142b9b8000b7f7a7be8
gd1983-04-22nak700pinney-16s2t10.flac:96bab196712f646ee973cff2298044a5
gd1983-04-22nak700pinney-16s2t11.flac:dce7c84ce9ef3ac09eacccbac9452182
gd1983-04-22nak700pinney-16s2t12.flac:4564f3fad971eddd2429b3454cb5258b
flac-md5
d1f0955339fa8a6ce0d8dbff5e28946b *gd1983-04-22nak700pinney-16s1t01.flac
b03f703a72198bd2e96c93f7d281552a *gd1983-04-22nak700pinney-16s1t02.flac
1e69ea5e3bfaedf7b557b7e25dfada23 *gd1983-04-22nak700pinney-16s1t03.flac
422cfe935892d05d7773d9231d7e2a75 *gd1983-04-22nak700pinney-16s1t04.flac
dd1bef81d6af02926dcc3aaa9dd4036e *gd1983-04-22nak700pinney-16s1t05.flac
18d1e2b61aa19aa456332978dd8e1995 *gd1983-04-22nak700pinney-16s1t06.flac
dca9ea573ed5b9a7806028709e68771e *gd1983-04-22nak700pinney-16s1t07.flac
fb186eaa9712d3b9757c94f906103c64 *gd1983-04-22nak700pinney-16s1t08.flac
69591a5157ea14607cfdc5d3edf2ece3 *gd1983-04-22nak700pinney-16s1t09.flac
1bcc5491db93e7334fba33cbbd6ec6a3 *gd1983-04-22nak700pinney-16s1t10.flac
5e2a9d162f25f080c07297330610efad *gd1983-04-22nak700pinney-16s2t01.flac
08e007a5ef405a550fc7912e3048d0c5 *gd1983-04-22nak700pinney-16s2t02.flac
f2f9e4d69f529f7f01fe7c7ee7261251 *gd1983-04-22nak700pinney-16s2t03.flac
52e91dc6a1094f1dea34067605e6aabc *gd1983-04-22nak700pinney-16s2t04.flac
ab6643558745255df9d985641a87a41d *gd1983-04-22nak700pinney-16s2t05.flac
0646dad515bee518093d1447bd76002e *gd1983-04-22nak700pinney-16s2t06.flac
ce9bd351ea3b5253d3b41b6b6aa29392 *gd1983-04-22nak700pinney-16s2t07.flac
776e94f22fce660d0dfee456b4de8ff1 *gd1983-04-22nak700pinney-16s2t08.flac
c0e0d99ee0167d85db062b70209dca54 *gd1983-04-22nak700pinney-16s2t09.flac
565d13da71501c18615e0d598041c097 *gd1983-04-22nak700pinney-16s2t10.flac
5d36f7892dd81c173d12d60ecc8ca04b *gd1983-04-22nak700pinney-16s2t11.flac
d69097e3ade92448622e7f2da2ba9a47 *gd1983-04-22nak700pinney-16s2t12.flac

Comments
Add Comment
Other Sources (comments)
FOB-Sennheiser 421> Master... (1) Barry Glassberg FOB AUDMC... (0) flac16;... (0) flac16; Nakamichi... (0) flac16; Source: 2... (0) flac24; AUD: 2x... (1) flac16; AUD: 2x... (1) flac24; Updated... (0) flac16; 1st Gen AUD... (0) flac16; source: aud... (0) flac24; source: aud... (0) flac24/48 First... (0)
Date User Comment