Browse Collections Artists Sources   Search Dates

Add Show    List Management    Help


Grateful Dead 04/22/83
Veterans' Memorial Coliseum, New Haven, CT
Comments Add Comment    Source Collectors    Add to Collection    Add to Want List    History
Source # 141734 Other Sources
Entered by Matt Vernon
Checksums ffp , flac-md5
Disc Counts 0 / 0
Media Size
Date Circulated
Date Added

04/19/2018
Source Summary flac24/48 First Gen AUD Cassette: Maxell XLII90 x 2 no NR Master was: Nakamichi 700 wcp1 caps 70ft from stacks DFC->Sony TCD5M|TDK MA 90 No Dolby (arrived late and patched) Transfer: Nakamichi LX-5->Dogstar cables-> Tascam DR-680|SD Recorded By: Tom Pinney assist to Executive Crew Transferred by: Kyle Holbrook 
  Archive
Source Information - Download Text | Download Zip
Grateful Dead
Date 1983-04-22
Veterans Memorial Coliseum
New Haven CT

This is a 24 bit 48khz file set

d1t01 - Funiculi Funicula
d1t02 - Feel Like a Stranger
d1t03 - Bird Song
d1t04 - C.C. Rider
d1t05 - Row Jimmy           //
d1t06 - Mama Tried
d1t07 - Mexicali Blues
d1t08 - Cold Rain and Snow
d1t09 - My Brother Esau
d1t10 - Deal

d2t01 - Help on the Way > Slipknot! > Franklin's Tower >
d2t02 - Samson and Delilah
d2t03 - Ship of Fools   >
d2t04 - Man Smart/Woman Smarter   //
d2t05 - space  /
d2t06 - drumspace  /+
d2t07 - Truckin' >
d2t08 - Spoonful >
d2t09 - Stella Blue >
d2t10 - Around and Around >   #
d2t11 - Good Lovin'   /^
d2t12 - encore Baby Blue  /*

Show Notes:
"Funiculi Funicula" & "Beer Barrel Polka" tunings before "Stranger" - last "Spoonful": 10-15-81 [94]
Recording Notes:
// Tape flip
/  Tape paused when band left stage
/+ Resumed for Mickey on bells/band back onstage
#  Intermittent Right channel cut outs
/# cut near end
/* One quick cut out near end from lead deck flip?


First Gen AUD Cassette: Maxell XLII90 x 2 no NR
Master was: Nakamichi 700 wcp1 caps 70ft from stacks DFC->Sony TCD5M|TDK                  MA 90 No Dolby (arrived late and patched)
Transfer: Nakamichi LX-5->Dogstar cables-> Tascam DR-680|SD
Recorded By: Tom Pinney assist to Executive Crew
Transferred by: Kyle Holbrook

=============================================================================
This was my first show to get shut out of. Tom and I met up in New Haven, got parked near each other, then waited for his friends to show with his ticket. They had no extras so after I met some of his friends from Maine, several of whom I became fast friends with, I was searching for a ticket. I remember sitting in Tom's car in a lot a few blocks down from the coliseum after looking for a ticket for an hour or so. We were on traffic ramps and all around the place, no tickets to be had. So we decided he would go in with the deck and see if he could patch. After Tom had gone to the show I got out of the car just to look around, there were some heads still looking for tickets and some still arriving into town who probably had tickets. Still I was shut out this night.

I saw this dude walking from the bridge area toward our lot holding a tie dye. He indicated it was for sale. I had never contemplated buying a tie dye, my SU deadhead friends just made their own, although this one DID have a different look to it. It was Martin of Not Fade Away, and I soon met his partner Dean and since I was so intrigued by their designs I obtained his contact information. It was my very first experience of being outside a show while the band is playing and realizing the parking lot had people in it; that there might be something to do if shut out aside from wait in the car. In 1982 this crowd was small, able to "hide in plain sight" mostly from the authorities.

After the show we got a motel room toward the outskirts of town and wound up copying tapes from one deck to the other in the hotel room. We probably used batteries as we would not ordinarily have a wall charger for those old Sony TCD5's. One of Tom's friends, Greg Martens I met that day would play a huge role in my life, both Grateful Dead and more. We wound up in my car together the next morning because we needed tapes and I figured the best place to get them was Uncle Steve's in NYC. When Greg got in my car, I said, "before we take off I have something I should tell you", he said, "I have something to tell you"- we laughed our asses off as we carefully drove to the city. We became friends before the drive to NYC and back was over. In NYC, we bought a Sony TCD5M for Tom and a bunch of tapes. Greg recalled that we bought so much stuff with the tape deck and accessories that Uncle Steve's wound up only charging us $10 for $100 worth of tapes (Plus we were buying Metal tapes which probably confused them).

Truckin' > Spoonful > Stella Blue worth he price of admission.!

- - - - -

    length     expanded size    cdr  WAVE problems  fmt   ratio  filename
     1:44.427      30074924 B   cxx   --   ---xx   flac  0.6782  gd1983-04-22nak700pinneys1t01.flac
     9:18.747     160919084 B   cxx   --   ---xx   flac  0.7263  gd1983-04-22nak700pinneys1t02.flac
    11:03.560     191105324 B   cxx   --   ---xx   flac  0.7140  gd1983-04-22nak700pinneys1t03.flac
     9:05.560     157121324 B   cxx   --   ---xx   flac  0.7177  gd1983-04-22nak700pinneys1t04.flac
    11:29.507     198577964 B   cxx   --   ---xx   flac  0.7105  gd1983-04-22nak700pinneys1t05.flac
     3:19.960      57588524 B   cxx   --   ---xx   flac  0.7039  gd1983-04-22nak700pinneys1t06.flac
     5:30.493      95182124 B   cxx   --   ---xx   flac  0.7087  gd1983-04-22nak700pinneys1t07.flac
     6:49.453     117922604 B   cxx   --   ---xx   flac  0.7136  gd1983-04-22nak700pinneys1t08.flac
     5:48.973     100504364 B   cxx   --   ---xx   flac  0.7096  gd1983-04-22nak700pinneys1t09.flac
     8:48.351     152165168 B   cxx   --   ---xx   flac  0.7168  gd1983-04-22nak700pinneys1t10.flac
    21:14.747     367127084 B   cxx   --   ---xx   flac  0.7166  gd1983-04-22nak700pinneys2t01.flac
    11:09.027     192679724 B   cxx   --   ---xx   flac  0.7071  gd1983-04-22nak700pinneys2t02.flac
     7:11.147     124170284 B   cxx   --   ---xx   flac  0.6946  gd1983-04-22nak700pinneys2t03.flac
     6:41.840     115729964 B   cxx   --   ---xx   flac  0.7057  gd1983-04-22nak700pinneys2t04.flac
     2:14.387      38703404 B   cxx   --   ---xx   flac  0.6939  gd1983-04-22nak700pinneys2t05.flac
    16:13.480     280362284 B   cxx   --   ---xx   flac  0.6812  gd1983-04-22nak700pinneys2t06.flac
     7:06.227     122753324 B   cxx   --   ---xx   flac  0.7298  gd1983-04-22nak700pinneys2t07.flac
     2:31.213      43549484 B   cxx   --   ---xx   flac  0.7086  gd1983-04-22nak700pinneys2t08.flac
     9:03.213     156445484 B   cxx   --   ---xx   flac  0.6940  gd1983-04-22nak700pinneys2t09.flac
     3:44.027      64519724 B   cxx   --   ---xx   flac  0.7205  gd1983-04-22nak700pinneys2t10.flac
     5:28.787      94690604 B   cxx   --   ---xx   flac  0.7279  gd1983-04-22nak700pinneys2t11.flac
     7:26.845     128691320 B   cxx   --   ---xx   flac  0.7021  gd1983-04-22nak700pinneys2t12.flac
   173:03.969    2990584088 B                            0.7089  (22 files)




Show Checksums
ffp
gd1983-04-22nak700pinneys1t01.flac:0133cc8ab14a7136f1d8fbf38079e24c
gd1983-04-22nak700pinneys1t02.flac:4317558f5ffd3f62dba0d8149296465b
gd1983-04-22nak700pinneys1t03.flac:729c0d3bf2e3716d3af0c5f5dd05a273
gd1983-04-22nak700pinneys1t04.flac:05a6d232e07e90aef85a377047b5a87d
gd1983-04-22nak700pinneys1t05.flac:76cf0d2da57d026f2a1ab7755e0d120b
gd1983-04-22nak700pinneys1t06.flac:09103f936ca87ea2c9230cdd25a81e79
gd1983-04-22nak700pinneys1t07.flac:f94aa251ea35ed75b3244ff061ee3c2b
gd1983-04-22nak700pinneys1t08.flac:0cd187bbac3f529d876da28658c69c92
gd1983-04-22nak700pinneys1t09.flac:794289fc27478bb81086d536cfb3be25
gd1983-04-22nak700pinneys1t10.flac:8b0fd9578aba3bb902d1a86592ca0f8e
gd1983-04-22nak700pinneys2t01.flac:2ae46fcd1339c9786f0399cee87e67b3
gd1983-04-22nak700pinneys2t02.flac:3ace172306717a37015cf53297eb7a76
gd1983-04-22nak700pinneys2t03.flac:8d890dadf0c620b64c7ecd9d007214a1
gd1983-04-22nak700pinneys2t04.flac:4c5e73a497a1cd9ebaee3f43b5a4c9a3
gd1983-04-22nak700pinneys2t05.flac:baf4243322f48dfe243a86ad3ddeadea
gd1983-04-22nak700pinneys2t06.flac:94c823ad5dd217413fac6dc335b0e5a3
gd1983-04-22nak700pinneys2t07.flac:8a11fb92ca70f51f1f75e4b4e995d5db
gd1983-04-22nak700pinneys2t08.flac:adbb65e9ff099eca4bbfac1a43a3a403
gd1983-04-22nak700pinneys2t09.flac:f195d02ce450f1689e08d1b01364f268
gd1983-04-22nak700pinneys2t10.flac:ffb90f3c4cd47f6bd1e4a23cdab8b68b
gd1983-04-22nak700pinneys2t11.flac:d6ea3b35234b441329a6a8d2f175b31f
gd1983-04-22nak700pinneys2t12.flac:50b31adf2567abca76d4c174d1fd582f
flac-md5
e6a1196533dd6147145157ae429dae07 *gd1983-04-22nak700pinneys1t01.flac
b4e055d36415f24e78c0b02b2c1758d6 *gd1983-04-22nak700pinneys1t02.flac
197e6b70408615388ff882a88ba2e182 *gd1983-04-22nak700pinneys1t03.flac
b34a17c8268d9b9e86d8941af980a756 *gd1983-04-22nak700pinneys1t04.flac
4f522c2cd5fc84241a0c08d53ec8e9c7 *gd1983-04-22nak700pinneys1t05.flac
a669e92b369b9e092fb263ff156145ed *gd1983-04-22nak700pinneys1t06.flac
389f3abc2637cb923d122bdd45721c13 *gd1983-04-22nak700pinneys1t07.flac
a31ee881458483498ef76e0ddb091966 *gd1983-04-22nak700pinneys1t08.flac
5ebcc63349a21f9c987f8fe3ef284b64 *gd1983-04-22nak700pinneys1t09.flac
1ab88dd15d2077cf9edf56039cf3aee4 *gd1983-04-22nak700pinneys1t10.flac
a5123060174737621b9140ec8f86cfd0 *gd1983-04-22nak700pinneys2t01.flac
bbe60361d78b1562cec865e7d8af8ed4 *gd1983-04-22nak700pinneys2t02.flac
59503216cd987285c8ce65288f022875 *gd1983-04-22nak700pinneys2t03.flac
3fc6275a732b92daf28e79332ff54f54 *gd1983-04-22nak700pinneys2t04.flac
bd232e9c44a88c8ec1b880322d9eec11 *gd1983-04-22nak700pinneys2t05.flac
5cb0d770ceb3a0e1c8ef0f3431f91878 *gd1983-04-22nak700pinneys2t06.flac
6f1022c47b6aa709b06cc49a6b7d5d98 *gd1983-04-22nak700pinneys2t07.flac
9b0240afaade51073a0e8cac1ad35f6f *gd1983-04-22nak700pinneys2t08.flac
33d4da050769e237246b7be8bc43b3ed *gd1983-04-22nak700pinneys2t09.flac
dc168b78544ee71d383e2201243f4d26 *gd1983-04-22nak700pinneys2t10.flac
3596535bc2731bf4a79a1bf6f3d7f036 *gd1983-04-22nak700pinneys2t11.flac
2ff3250e8a201991dcb3da6dd54a8660 *gd1983-04-22nak700pinneys2t12.flac

Comments
Add Comment
Other Sources (comments)
FOB-Sennheiser 421> Master... (1) Barry Glassberg FOB AUDMC... (0) flac16;... (0) flac16; Nakamichi... (0) flac16; Source: 2... (0) flac24; AUD: 2x... (1) flac16; AUD: 2x... (1) flac24; Updated... (0) flac16; 1st Gen AUD... (0) flac16; source: aud... (0) flac24; source: aud... (0) flac16/44.1 First... (0)
Date User Comment