Browse Collections Artists Sources   Search Dates

Add Show    List Management    Help


Grateful Dead 04/23/83
Veterans' Memorial Coliseum, New Haven, CT
Comments Add Comment    Source Collectors    Add to Collection    Add to Want List    History
Source # 141735 Other Sources
Entered by Matt Vernon
Checksums ffp , flac-md5
Disc Counts 0 / 0
Media Size
Date Circulated
Date Added

04/19/2018
Source Summary flac16/44.1 First Gen AUD Cassette: TDK MA 90 x 2 no NR Master was: Beyer M201's hypercardiod XY 120 ft from stage DFC (1st row behind SBD)->Sony TCD5M|TDK MA 90 No Dolby Transfer: Nakamichi LX-5->Dogstar cables-> Tascam DR-680|SD Recorded By: Executive Crew- Tom Pinney & Kyle Holbrook Transferred by: Kyle Holbrook 
  Archive
Source Information - Download Text | Download Zip
Grateful Dead
Date 1983-04-23
Veterans Memorial Coliseum
New Haven CT

This is a 16 bit 44.1khz file set

Set 1

d1t01 - Alabama Getaway >    *
d1t02 - Greatest Story Ever Told
d1t03 - Finiculi Finicula
d1t04 - Candyman
d1t05 - Minglewood Blues   /
d1t06 - Tennessee Jed
d1t07 - Lazy Lightning > Supplication
d1t08 - Peggy-O
d1t09 - Far From Me
d1t10 - The Music Never Stopped

Set 2

d2t01 - Scarlet Begonias > Fire On The Mountain    #
d2t02 - Lost Sailor > Saint Of Circumstance > //
d2t03 - Drums >
d2t04 - space >
d2t05 - The Other One >
d2t06 - Wharf Rat >
d2t07 - Throwing Stones > //&
d2t08 - Not Fade Away
d2t09 - crowd
d2t10 - encore01 One More Saturday Night >
d2t11 - encore02 Brokedown Palace

Show Notes:
P.A. system squealing (Bob's guitar) during GSET and Candyman

Recording Notes:
* Very end of song someone kicked the mic stand-loud bump
# Some channel drop outs ~5 min mark
/ tape paused between songs
// tape flip
//& Lead deck flipped before us near end


First Gen AUD Cassette: TDK MA 90 x 2 no NR
Master was: Beyer M201's hypercardiod XY 120 ft from stage DFC (1st row    behind SBD)->Sony TCD5M|TDK MA 90 No Dolby
Transfer: Nakamichi LX-5->Dogstar cables-> Tascam DR-680|SD
Recorded By: Executive Crew- Tom Pinney & Kyle Holbrook
Transferred by: Kyle Holbrook
============================================================================
Via the good ol internet I discovered that the Veterans Memorial Coliseum was imploded in 2007. Those old New England cities had those concrete monsters for arenas and even back then some of them were ancient, built probably in the 40's or 50's post WWII era. Every time I went there it just always seemed to be hollow ,no spirit or soul, and for this particular GD run, the cops surrounding the building were over the top. We arrived late on night 1 and I didn't get in but I had found a ticket for this night 2.  Security was so tight we were only able to get in one deck so this copy was from a first generation off of Tom's master. I remember the venue feeling HUGE and when you ventured out into the hallways there were heads everywhere, smiling and spinning.

The Scarlet Fire is very slow and deliberate with the interlude heading into Fire having a mellow spaciness. Brent messes up Saint of Circumstance harmony by coming in early and Jerry goes "Hey" during a very feisty version which sounds like they were having fun. Bob used to love playing that song he put so much energy into it. The Drums & Space intro is out of control Mickey craziness; he had some bells set up on a rack like tibetan prayer bowls, but bells, and proceeded to make a wild ending of drums leading to some jerry led space.Billy wails on some low Tom Toms leading into the Other One so listening back all these years later I can only conclude the drummers had some new toys or were feeling fine this evening as they put on a SHOW.

I remember heading back to Syracuse after the show and stopping at some rest area, probably Mass Pike, and getting out to see deadheads everywhere. Some in the McDonalds, some sleeping in their cars, just seemed like a lot of folks headed West quite a ways from New Haven. Those drives home headed West early in the morning toward Syracuse were often so exhausting. Thanks to whomever created the NYS rest areas with their 24 hour gas stations and large rest rooms. Deadheads could camp in one of those rest rooms until time to head to the next show!

- - - - - sbe’s at end of sets

    length     expanded size    cdr  WAVE problems  fmt   ratio  filename
     5:39.59       59938412 B   ---   --   ---xx   flac  0.5943  gd1983-04-23beyerm201-16s1t01.flac
     4:12.04       44462252 B   ---   --   ---xx   flac  0.6070  gd1983-04-23beyerm201-16s1t02.flac
     1:27.68       15506780 B   ---   --   ---xx   flac  0.5062  gd1983-04-23beyerm201-16s1t03.flac
     7:21.01       77794796 B   ---   --   ---xx   flac  0.5574  gd1983-04-23beyerm201-16s1t04.flac
     8:05.20       85601084 B   ---   --   ---xx   flac  0.5819  gd1983-04-23beyerm201-16s1t05.flac
     9:04.00       95961644 B   ---   --   ---xx   flac  0.5666  gd1983-04-23beyerm201-16s1t06.flac
    10:19.00      109191644 B   ---   --   ---xx   flac  0.5906  gd1983-04-23beyerm201-16s1t07.flac
     8:20.66       88355276 B   ---   --   ---xx   flac  0.5434  gd1983-04-23beyerm201-16s1t08.flac
     4:27.52       47221148 B   ---   --   ---xx   flac  0.5942  gd1983-04-23beyerm201-16s1t09.flac
     8:47.73       93134760 B   -b-   --   ---xx   flac  0.5938  gd1983-04-23beyerm201-16s1t10.flac
    26:56.55      285191804 B   ---   --   ---xx   flac  0.5784  gd1983-04-23beyerm201-16s2t01.flac
    14:55.67      158035628 B   ---   --   ---xx   flac  0.5690  gd1983-04-23beyerm201-16s2t02.flac
     5:10.48       54796940 B   ---   --   ---xx   flac  0.5565  gd1983-04-23beyerm201-16s2t03.flac
    11:18.67      119756828 B   ---   --   ---xx   flac  0.5265  gd1983-04-23beyerm201-16s2t04.flac
    12:54.16      136571276 B   ---   --   ---xx   flac  0.5947  gd1983-04-23beyerm201-16s2t05.flac
     9:23.17       99353228 B   ---   --   ---xx   flac  0.5750  gd1983-04-23beyerm201-16s2t06.flac
     8:56.51       94670396 B   ---   --   ---xx   flac  0.5858  gd1983-04-23beyerm201-16s2t07.flac
     8:28.52       89733548 B   ---   --   ---xx   flac  0.5748  gd1983-04-23beyerm201-16s2t08.flac
     0:44.38        7851020 B   ---   --   ---xx   flac  0.5392  gd1983-04-23beyerm201-16s2t09.flac
     4:24.39       46661372 B   ---   --   ---xx   flac  0.6128  gd1983-04-23beyerm201-16s2t10.flac
     5:39.15       59833948 B   -b-   --   ---xx   flac  0.5708  gd1983-04-23beyerm201-16s2t11.flac
   176:38.58     1869623784 B                            0.5748  (21 files)




Show Checksums
ffp
gd1983-04-23beyerm201-16s1t01.flac:f8d6be5eeab23377a6a912ddf35c8e22
gd1983-04-23beyerm201-16s1t02.flac:d065c0c87f4c7c4cc15124db24925b91
gd1983-04-23beyerm201-16s1t03.flac:258d253dd5bc325ed3d807febb2f7740
gd1983-04-23beyerm201-16s1t04.flac:c53efba469cd0cd45751034ec7250efa
gd1983-04-23beyerm201-16s1t05.flac:d1e4ac35b6703fdbe30f9e5258e4269d
gd1983-04-23beyerm201-16s1t06.flac:0795a5637f2909ca2854cdb29472bf11
gd1983-04-23beyerm201-16s1t07.flac:93deb5492b438114d207963b28894fa9
gd1983-04-23beyerm201-16s1t08.flac:6eaacfa04c38734894b2e1be383c632f
gd1983-04-23beyerm201-16s1t09.flac:d0473ca6eb49ee5dc054963c373c91d6
gd1983-04-23beyerm201-16s1t10.flac:c351b06bf91378cdbbec66589cdbdee3
gd1983-04-23beyerm201-16s2t01.flac:ccfb23e66b637d53cc00c12909d5a10d
gd1983-04-23beyerm201-16s2t02.flac:9b60dcc0a2dd175ae132db7800373d95
gd1983-04-23beyerm201-16s2t03.flac:df046b281d8950d152cb63633576932b
gd1983-04-23beyerm201-16s2t04.flac:d8edb33f1ea874f5a7e8c3e81344d3d9
gd1983-04-23beyerm201-16s2t05.flac:62cb91812ddea5c3d858c8f2cc9cf328
gd1983-04-23beyerm201-16s2t06.flac:d98747e0aa233f4e6056819559711f2d
gd1983-04-23beyerm201-16s2t07.flac:0cdf9c4ab29cd5c73409524a8950c006
gd1983-04-23beyerm201-16s2t08.flac:bae4a86b0b1ad3ccfa2f8d7e4acd04ef
gd1983-04-23beyerm201-16s2t09.flac:b7c3d8404d031cfedaec39152eaae928
gd1983-04-23beyerm201-16s2t10.flac:427a7a260466a2d46bf0dc2efe492cb9
gd1983-04-23beyerm201-16s2t11.flac:1fc447c92cf488c38e468a6768c2f254
flac-md5
ab96bdf671f3bd9cea78d538afa54f3f *gd1983-04-23beyerm201-16s1t01.flac
d35e5d05e464cfeaa747f9607782dbb5 *gd1983-04-23beyerm201-16s1t02.flac
4a42b363a8bab77aed6c5d018d6ab6ba *gd1983-04-23beyerm201-16s1t03.flac
89b87630f3c00ef7546b5d60fd79d956 *gd1983-04-23beyerm201-16s1t04.flac
346a8250d93491943ddab649ff3b9edc *gd1983-04-23beyerm201-16s1t05.flac
3a2103741222ad17be39693f07fa72b6 *gd1983-04-23beyerm201-16s1t06.flac
1a9c0fa3de389d7e013c441e300982fa *gd1983-04-23beyerm201-16s1t07.flac
36e790ae84f78c67f77fa3d74587a71b *gd1983-04-23beyerm201-16s1t08.flac
2da41fbfc5f51009bc94dbfbb8f0a5e8 *gd1983-04-23beyerm201-16s1t09.flac
77dbd4730b2ce12b63ed269d5c988a0b *gd1983-04-23beyerm201-16s1t10.flac
3cef87199e871fd8d5a0d5708497ce3a *gd1983-04-23beyerm201-16s2t01.flac
414e0e41672be965789a6faf89821160 *gd1983-04-23beyerm201-16s2t02.flac
b2fef43d592bb41b5e99671a8834cc77 *gd1983-04-23beyerm201-16s2t03.flac
88a833e7138900598dee492fa9d64b89 *gd1983-04-23beyerm201-16s2t04.flac
6e85959ab2092ced77b3cf661ad30a5e *gd1983-04-23beyerm201-16s2t05.flac
083bc9be9c890e5b15f5f0ec66514206 *gd1983-04-23beyerm201-16s2t06.flac
1eb85805117cde15b7dd91b761fd0c22 *gd1983-04-23beyerm201-16s2t07.flac
7fd769f8f026f98508094dac1f9dc921 *gd1983-04-23beyerm201-16s2t08.flac
4eb31bfbc0c0dd537097522dd570b81c *gd1983-04-23beyerm201-16s2t09.flac
2cd419b0fba81beb85b937ed765b71b8 *gd1983-04-23beyerm201-16s2t10.flac
b194c032921fd28d595bf73fec7ecca5 *gd1983-04-23beyerm201-16s2t11.flac

Comments
Add Comment
Other Sources (comments)
FOB-Sennheiser 421> Master... (0) flac16; SBD ->... (1) flac16;... (0) flac16;... (0) flac16; Nakamichi... (0) flac16; Source: 2... (1) flac24; AUD: 2x... (1) flac16; AUD: 2x... (1) flac16; Set 2... (0) flac24; Set 2... (0) flac24; Updated... (0) flac16; Set 2 only... (1) flac16; source: aud... (0) flac24; source: aud... (0) flac24/48 First Gen... (0)
Date User Comment