Browse Collections Artists Sources   Search Dates

Add Show    List Management    Help


Grateful Dead 04/23/83
Veterans' Memorial Coliseum, New Haven, CT
Comments Add Comment    Source Collectors    Add to Collection    Add to Want List    History
Source # 141736 Other Sources
Entered by Matt Vernon
Checksums ffp , flac-md5
Disc Counts 0 / 0
Media Size
Date Circulated
Date Added

04/19/2018
Source Summary flac24/48 First Gen AUD Cassette: TDK MA 90 x 2 no NR Master was: Beyer M201's hypercardiod XY 120 ft from stage DFC (1st row behind SBD)->Sony TCD5M|TDK MA 90 No Dolby Transfer: Nakamichi LX-5->Dogstar cables-> Tascam DR-680|SD Recorded By: Executive Crew- Tom Pinney & Kyle Holbrook Transferred by: Kyle Holbrook 
  Archive
Source Information - Download Text | Download Zip
Grateful Dead
Date 1983-04-23
Veterans Memorial Coliseum
New Haven CT

This is a 24 bit 48khz file set

Set 1

d1t01 - Alabama Getaway >    *
d1t02 - Greatest Story Ever Told
d1t03 - Finiculi Finicula
d1t04 - Candyman
d1t05 - Minglewood Blues   /
d1t06 - Tennessee Jed
d1t07 - Lazy Lightning > Supplication
d1t08 - Peggy-O
d1t09 - Far From Me
d1t10 - The Music Never Stopped

Set 2

d2t01 - Scarlet Begonias > Fire On The Mountain    #
d2t02 - Lost Sailor > Saint Of Circumstance > //
d2t03 - Drums >
d2t04 - space >
d2t05 - The Other One >
d2t06 - Wharf Rat >
d2t07 - Throwing Stones > //&
d2t08 - Not Fade Away
d2t09 - crowd
d2t10 - encore01 One More Saturday Night >
d2t11 - encore02 Brokedown Palace

Show Notes:
P.A. system squealing (Bob's guitar) during GSET and Candyman

Recording Notes:
* Very end of song someone kicked the mic stand-loud bump
# Some channel drop outs ~5 min mark
/ tape paused between songs
// tape flip
//& Lead deck flipped before us near end


First Gen AUD Cassette: TDK MA 90 x 2 no NR
Master was: Beyer M201's hypercardiod XY 120 ft from stage DFC (1st row    behind SBD)->Sony TCD5M|TDK MA 90 No Dolby
Transfer: Nakamichi LX-5->Dogstar cables-> Tascam DR-680|SD
Recorded By: Executive Crew- Tom Pinney & Kyle Holbrook
Transferred by: Kyle Holbrook
============================================================================
Via the good ol internet I discovered that the Veterans Memorial Coliseum was imploded in 2007. Those old New England cities had those concrete monsters for arenas and even back then some of them were ancient, built probably in the 40's or 50's post WWII era. Every time I went there it just always seemed to be hollow ,no spirit or soul, and for this particular GD run, the cops surrounding the building were over the top. We arrived late on night 1 and I didn't get in but I had found a ticket for this night 2.  Security was so tight we were only able to get in one deck so this copy was from a first generation off of Tom's master. I remember the venue feeling HUGE and when you ventured out into the hallways there were heads everywhere, smiling and spinning.

The Scarlet Fire is very slow and deliberate with the interlude heading into Fire having a mellow spaciness. Brent messes up Saint of Circumstance harmony by coming in early and Jerry goes "Hey" during a very feisty version which sounds like they were having fun. Bob used to love playing that song he put so much energy into it. The Drums & Space intro is out of control Mickey craziness; he had some bells set up on a rack like tibetan prayer bowls, but bells, and proceeded to make a wild ending of drums leading to some jerry led space.Billy wails on some low Tom Toms leading into the Other One so listening back all these years later I can only conclude the drummers had some new toys or were feeling fine this evening as they put on a SHOW.

I remember heading back to Syracuse after the show and stopping at some rest area, probably Mass Pike, and getting out to see deadheads everywhere. Some in the McDonalds, some sleeping in their cars, just seemed like a lot of folks headed West quite a ways from New Haven. Those drives home headed West early in the morning toward Syracuse were often so exhausting. Thanks to whomever created the NYS rest areas with their 24 hour gas stations and large rest rooms. Deadheads could camp in one of those rest rooms until time to head to the next show!

- - - - -

    length     expanded size    cdr  WAVE problems  fmt   ratio  filename
     5:39.787      97858604 B   cxx   --   ---xx   flac  0.7265  gd1983-04-23beyerm201s1t01.flac
     4:12.053      72591404 B   cxx   --   ---xx   flac  0.7342  gd1983-04-23beyerm201s1t02.flac
     1:27.907      25317164 B   cxx   --   ---xx   flac  0.6721  gd1983-04-23beyerm201s1t03.flac
     7:21.013     127011884 B   cxx   --   ---xx   flac  0.7038  gd1983-04-23beyerm201s1t04.flac
     8:05.267     139756844 B   cxx   --   ---xx   flac  0.7189  gd1983-04-23beyerm201s1t05.flac
     9:04.000     156672044 B   cxx   --   ---xx   flac  0.7094  gd1983-04-23beyerm201s1t06.flac
    10:19.000     178272044 B   cxx   --   ---xx   flac  0.7241  gd1983-04-23beyerm201s1t07.flac
     8:20.880     144253484 B   cxx   --   ---xx   flac  0.6949  gd1983-04-23beyerm201s1t08.flac
     4:27.693      77095724 B   cxx   --   ---xx   flac  0.7263  gd1983-04-23beyerm201s1t09.flac
     8:47.975     152056724 B   cxx   --   ---xx   flac  0.7261  gd1983-04-23beyerm201s1t10.flac
    26:56.733     465619244 B   cxx   --   ---xx   flac  0.7173  gd1983-04-23beyerm201s2t01.flac
    14:55.893     258017324 B   cxx   --   ---xx   flac  0.7116  gd1983-04-23beyerm201s2t02.flac
     5:10.640      89464364 B   cxx   --   ---xx   flac  0.7040  gd1983-04-23beyerm201s2t03.flac
    11:18.893     195521324 B   cxx   --   ---xx   flac  0.6855  gd1983-04-23beyerm201s2t04.flac
    12:54.213     222973484 B   cxx   --   ---xx   flac  0.7274  gd1983-04-23beyerm201s2t05.flac
     9:23.227     162209324 B   cxx   --   ---xx   flac  0.7154  gd1983-04-23beyerm201s2t06.flac
     8:56.680     154563884 B   cxx   --   ---xx   flac  0.7219  gd1983-04-23beyerm201s2t07.flac
     8:28.693     146503724 B   cxx   --   ---xx   flac  0.7147  gd1983-04-23beyerm201s2t08.flac
     0:44.507      12817964 B   cxx   --   ---xx   flac  0.6930  gd1983-04-23beyerm201s2t09.flac
     4:24.520      76181804 B   cxx   --   ---xx   flac  0.7381  gd1983-04-23beyerm201s2t10.flac
     5:39.194      97688048 B   cxx   --   ---xx   flac  0.7125  gd1983-04-23beyerm201s2t11.flac
   176:38.769    3052446408 B                            0.7148  (21 files)




Show Checksums
ffp
gd1983-04-23beyerm201s1t01.flac:308c2a795b1da434f3b1c8da28098773
gd1983-04-23beyerm201s1t02.flac:63de4b4174855ece51fd893bcbe4a79e
gd1983-04-23beyerm201s1t03.flac:29c1e564e25122e8d3baf528c1a8d147
gd1983-04-23beyerm201s1t04.flac:fc6a2e25330d5d8f7fe4458656ce101a
gd1983-04-23beyerm201s1t05.flac:b97aba92d50fc1a44090006aa98e4aab
gd1983-04-23beyerm201s1t06.flac:80d745df8aee88802d56c47f656e4141
gd1983-04-23beyerm201s1t07.flac:08779496faa9e51f8ca7401429184126
gd1983-04-23beyerm201s1t08.flac:51793ca9f950915c40839587e832e6e6
gd1983-04-23beyerm201s1t09.flac:814aa4e5f0470c47ebeb75c983bf1a47
gd1983-04-23beyerm201s1t10.flac:bfe1580854eef3c3e3319b56ef06ab41
gd1983-04-23beyerm201s2t01.flac:acf9f47c52e8d52863d17a15caf5e11c
gd1983-04-23beyerm201s2t02.flac:22985ac7608d687473f3b536d23d399b
gd1983-04-23beyerm201s2t03.flac:8763ff7b6e219ca17a8e98f0cb28aa8f
gd1983-04-23beyerm201s2t04.flac:9f152b9942b764b49c43f30ae1fb3893
gd1983-04-23beyerm201s2t05.flac:7df203ef070151755873b9ebac3fe205
gd1983-04-23beyerm201s2t06.flac:46c5ff926fd2b9c628224274ce51188d
gd1983-04-23beyerm201s2t07.flac:d9b2825a4ba137684a2ff38db3a4270a
gd1983-04-23beyerm201s2t08.flac:84fa0341437cfeeb84760f12c12cd735
gd1983-04-23beyerm201s2t09.flac:f7a19845dad6a5648173a464a2bd92e1
gd1983-04-23beyerm201s2t10.flac:f903f576c5b8ffbd7650ae3170150da6
gd1983-04-23beyerm201s2t11.flac:19d83edbeb1b7b6a96d891dc306e1d4c
flac-md5
e92398b491e1c2706b3dab0c7d93e313 *gd1983-04-23beyerm201s1t01.flac
b06243712f54b90fd8d124741b2e2193 *gd1983-04-23beyerm201s1t02.flac
2c2ca4d19620ae67cc8d6df2e715ba70 *gd1983-04-23beyerm201s1t03.flac
392d3d8cbd190a3fa83a33056342e2fa *gd1983-04-23beyerm201s1t04.flac
e582fe840f481eb56d73261c272ba3e9 *gd1983-04-23beyerm201s1t05.flac
c555d23a3286a7e41bb89823187ebcb3 *gd1983-04-23beyerm201s1t06.flac
d9c1efb2774204b58d6d0cbcb90ae3b0 *gd1983-04-23beyerm201s1t07.flac
183bc84c95ea38022a24af32785287a0 *gd1983-04-23beyerm201s1t08.flac
bda39cd47d72c875653e736be0915269 *gd1983-04-23beyerm201s1t09.flac
8c0da923237bef4e1ce8a87f0cc2b565 *gd1983-04-23beyerm201s1t10.flac
e97ef084de2e3e85c95aa68962b90c9c *gd1983-04-23beyerm201s2t01.flac
87ea11e6fbc9e1140e398f3a0cfaf2dd *gd1983-04-23beyerm201s2t02.flac
5231b969e4b8131c6ee7d4505013fda9 *gd1983-04-23beyerm201s2t03.flac
abedbb1658efca13c855342b69d510d7 *gd1983-04-23beyerm201s2t04.flac
acd37c3f62acd23a95ee8b57289da36a *gd1983-04-23beyerm201s2t05.flac
ad8ffdaa5c0b829339eb3082ac418ab8 *gd1983-04-23beyerm201s2t06.flac
4f550cea235bcc36b1a34bab88405229 *gd1983-04-23beyerm201s2t07.flac
f7ad898c8e70f8dc5f419d7dd6b29216 *gd1983-04-23beyerm201s2t08.flac
4d9db1b18da9f1001c23ecdab3f8d8a9 *gd1983-04-23beyerm201s2t09.flac
2cc76afcffe5fb5503652be2b4922870 *gd1983-04-23beyerm201s2t10.flac
79597d36837a38b532910a75d299c2fa *gd1983-04-23beyerm201s2t11.flac

Comments
Add Comment
Other Sources (comments)
FOB-Sennheiser 421> Master... (0) flac16; SBD ->... (1) flac16;... (0) flac16;... (0) flac16; Nakamichi... (0) flac16; Source: 2... (1) flac24; AUD: 2x... (1) flac16; AUD: 2x... (1) flac16; Set 2... (0) flac24; Set 2... (0) flac24; Updated... (0) flac16; Set 2 only... (1) flac16; source: aud... (0) flac24; source: aud... (0) flac16/44.1 First... (0)
Date User Comment