Browse Collections Artists Sources   Search Dates

Add Show    List Management    Help


Grateful Dead 04/26/83
The Spectrum, Philadelphia, PA
Comments Add Comment    Source Collectors    Add to Collection    Add to Want List    History
Source # 141738 Other Sources
Entered by Matt Vernon
Checksums ffp , flac-md5
Disc Counts 0 / 0
Media Size
Date Circulated
Date Added

04/19/2018
Source Summary flac24/48 Master AUD: Beyer M201 hypercardiod XY->Sony TCD5M|TDK MA90 No Dolby Location: set1 20ft from stacks RT side lower section set2 behind stage 20 feet from stacks 5 ' ROC Transfer: Nakamichi CR-5A->Dogstar cables-> Tascam DR-680|SD Recorded By: Olvy Johnson Transferred by: Kyle Holbrook 
  Archive
Source Information - Download Text | Download Zip
Grateful Dead
Date 1983-04-26
The Spectrum
Philadephia PA

This is a 24 bit 48khz file set

Set 1
***    Missing first three songs
d1t01 - Me & My Uncle >
d1t02 - Mexicali Blues   /
d1t03 - Maybe You Know
d1t04 - West LA Fadeaway
d1t05 - Brother Esau
d1t06 - It Must Have Been The Roses
d1t07 - Let it Grow

Set 2
d2t01 - Help On the Way > Slipknot! > Franklin's Tower >
d2t02 - Women Are Smarter >
d2t03 - drums >
d2t04 - space >  //
d2t05 - space >
d2t06 - Truckin' >
d2t07 - Morning Dew >
d2t08 - Throwing Stones >
d2t09 - Not Fade Away  //
d2t10 - crowd chant encore break
d2t11 - U.S. Blues

Recording Information:
*** (Shakedown Street-> Minglewood Blues, They Love Each Other missing)
/ tape paused between songs
// Tape flip

Master AUD: Beyer M201 hypercardiod XY->Sony TCD5M|TDK MA90 No Dolby
Location:
set1 20ft from stacks RT side lower section
set2 behind stage 20 feet from stacks 5 ' ROC
Transfer: Nakamichi CR-5A->Dogstar cables-> Tascam DR-680|SD
Recorded By: Olvy Johnson
Transferred by: Kyle Holbrook
============================================================================
Olvy decided to go to the last show of the tour on a bit of a whim. Aside from final exams I can't imagine why the rest of us couldn't go, so it must have been finals.I can't recall who he went with (Skip, John Borg?), he brought the D5 and Beyers and made it inside with the gear. Inside the cassette case I was surprised to find a hand written diagram of the 4 speaker stacks and his location relative to them! I then remembered him drawing it and explaining to us. I wonder why we never did that again although we took pretty good notes on our masters.

According to the reviews I read this was a doozy show. Many people had a blast at the good old Spectrum. Several folks claim that the Dead really liked that venue; I can say I saw them there about 14 times and they rarely played a stinker at the Spectrum. The first set takes off with a sublime Must Have Been the Roses; the band is soooooo mellow you can practically hear them breathing through the vocal mics. Then they let sail a ripper Let It Grow to end the first set. The continuing Spring 83 Help>Slip>Franklin's odyssey shows up and is thoroughly worked over, complete with spacejam at the end before an awkward transition to Women Are Smarter. The lead into Morning Dew out of Truckin' puts the mood in the Dew, which then kicks ass.

The sound quality is OK for this tour, but I feel we went from alternating placing the mics on a stand to hand holding them still a few times this tour and we learned the hand holding like Olvy did here was just not going to cut it and for the most part ran on a stand for 90% after that (well.... then the C422 came on the scene in late 84,thru 1986 and so we went back to some handheld).

- - - -

    length     expanded size    cdr  WAVE problems  fmt   ratio  filename
     3:16.920      56713004 B   cxx   --   ---xx   flac  0.7317  gd1983-04-26beyerm201s1t01.flac
     5:38.267      97420844 B   cxx   --   ---xx   flac  0.7407  gd1983-04-26beyerm201s1t02.flac
     5:11.267      89644844 B   cxx   --   ---xx   flac  0.7402  gd1983-04-26beyerm201s1t03.flac
     7:43.053     133359404 B   cxx   --   ---xx   flac  0.7326  gd1983-04-26beyerm201s1t04.flac
     5:17.173      91345964 B   cxx   --   ---xx   flac  0.7223  gd1983-04-26beyerm201s1t05.flac
     5:34.413      96311084 B   cxx   --   ---xx   flac  0.7259  gd1983-04-26beyerm201s1t06.flac
    12:17.336     212352872 B   cxx   --   ---xx   flac  0.7419  gd1983-04-26beyerm201s1t07.flac
    19:15.240     332709164 B   cxx   --   ---xx   flac  0.7426  gd1983-04-26beyerm201s2t01.flac
     6:54.453     119362604 B   cxx   --   ---xx   flac  0.7530  gd1983-04-26beyerm201s2t02.flac
    11:10.453     193090604 B   cxx   --   ---xx   flac  0.7158  gd1983-04-26beyerm201s2t03.flac
     5:48.467     100358444 B   cxx   --   ---xx   flac  0.6951  gd1983-04-26beyerm201s2t04.flac
     5:49.907     100773164 B   cxx   --   ---xx   flac  0.6976  gd1983-04-26beyerm201s2t05.flac
     7:55.933     137068844 B   cxx   --   ---xx   flac  0.7452  gd1983-04-26beyerm201s2t06.flac
    10:40.080     184343084 B   cxx   --   ---xx   flac  0.7295  gd1983-04-26beyerm201s2t07.flac
     9:31.347     164547884 B   cxx   --   ---xx   flac  0.7363  gd1983-04-26beyerm201s2t08.flac
     7:45.413     134039084 B   cxx   --   ---xx   flac  0.7381  gd1983-04-26beyerm201s2t09.flac
     2:08.920      37129004 B   cxx   --   ---xx   flac  0.7375  gd1983-04-26beyerm201s2t10.flac
     5:03.598      87436352 B   cxx   --   ---xx   flac  0.7563  gd1983-04-26beyerm201s2t11.flac
   137:02.241    2368006248 B                            0.7334  (18 files)




Show Checksums
ffp
gd1983-04-26beyerm201s1t01.flac:5e851d2470c795019a349b8f1f2e8dd3
gd1983-04-26beyerm201s1t02.flac:21a7a611c01e8f9fd69860ca88959890
gd1983-04-26beyerm201s1t03.flac:ec956efd3d1fb10390a0bab45b7339ba
gd1983-04-26beyerm201s1t04.flac:6b23e3a13eb943318bcfd23ab307f42b
gd1983-04-26beyerm201s1t05.flac:430073fa5b66b7efbe8b7a56d387f6db
gd1983-04-26beyerm201s1t06.flac:160125b5e1f6fc5039257dbe9e943b59
gd1983-04-26beyerm201s1t07.flac:71e459f00be87bf348b0b8cfa92a3fa9
gd1983-04-26beyerm201s2t01.flac:ad31c2bdc1cb6941b84cd5008901a128
gd1983-04-26beyerm201s2t02.flac:dcbac51eb706a004ce579c0b5468792a
gd1983-04-26beyerm201s2t03.flac:874e0f051977b5aa2446b4575f3ac285
gd1983-04-26beyerm201s2t04.flac:9127ccd1fcf993e925457c87e34b197d
gd1983-04-26beyerm201s2t05.flac:6d5fcd448b3df3b63a9c200db5999a9e
gd1983-04-26beyerm201s2t06.flac:7d8ccf00f058943bea4fefbcbe9fd32a
gd1983-04-26beyerm201s2t07.flac:0639b3c85361689cf6e113c8aafcab00
gd1983-04-26beyerm201s2t08.flac:cf40c2672a5a697e87df96fc7c8de42c
gd1983-04-26beyerm201s2t09.flac:a35ddab956c0c6e53b50f75a36ec9b03
gd1983-04-26beyerm201s2t10.flac:1c94a2ab1755e17f4ae83ea30bbc3bba
gd1983-04-26beyerm201s2t11.flac:d9b3dcc3a98a5624ac6df84ffa45eb2c
flac-md5
38554857fefa10148027c1e836529e5f *gd1983-04-26beyerm201s1t01.flac
6dcf3abd789b10aeab0095af429b043b *gd1983-04-26beyerm201s1t02.flac
42210d9f6ee628ef415f1b7c6784af8b *gd1983-04-26beyerm201s1t03.flac
2b1f317a53fcbd39cb121bb7e76cecbd *gd1983-04-26beyerm201s1t04.flac
fc43317d22eeace8bb58397630a863ae *gd1983-04-26beyerm201s1t05.flac
66adf80e738d6b7580979af18f9fbf0d *gd1983-04-26beyerm201s1t06.flac
53e9c9b45991717f8c81b31aae66b609 *gd1983-04-26beyerm201s1t07.flac
fdf8fe33099259891fec74ea551564b1 *gd1983-04-26beyerm201s2t01.flac
523cfa79354a7fe217ef67239db8f30c *gd1983-04-26beyerm201s2t02.flac
2988b194b457dd00557114ef667d1f22 *gd1983-04-26beyerm201s2t03.flac
d749cf1cdcc3bf9a31914907340d4df9 *gd1983-04-26beyerm201s2t04.flac
10e5395ce72f6e4fbe8e0ef506b751b9 *gd1983-04-26beyerm201s2t05.flac
cffcd9e54cffc5fac9ceb97057e68e7f *gd1983-04-26beyerm201s2t06.flac
79b57f88f241d15762612a7496beb567 *gd1983-04-26beyerm201s2t07.flac
452e2401a7e1cc59706a1ef097eb1766 *gd1983-04-26beyerm201s2t08.flac
36d4ce01b31afb20a0e9d65efb2ff251 *gd1983-04-26beyerm201s2t09.flac
4c58ecf921f06f729cdce2f85e23e91d *gd1983-04-26beyerm201s2t10.flac
b98dce2f0c740fc7dc003f532f15742a *gd1983-04-26beyerm201s2t11.flac

Comments
Add Comment
Other Sources (comments)
SBDMC> Cass> DAT> CDR> EAC>... (1) set2; Sennheiser shotguns >... (0) flac16; Unknown mics... (0) flac16; Seamless fix... (1) flac16; Recording... (0) flac16; Source: 2... (0) flac16; 2 Source... (0) flac16/48kHz; Master... (0) flac16; MAC; (FOB)... (0) flac24; MAC; (FOB)... (0) flac24; Master... (0) flac16; Master... (0) flac16/44.1 Master... (0)
Date User Comment