Browse Collections Artists Sources   Search Dates

Add Show    List Management    Help


Grateful Dead 07/26/87
Anaheim Stadium, Anaheim, CA
Comments Add Comment    Source Collectors    Add to Collection    Add to Want List    History
Source # 141759 Other Sources
Entered by Matt Vernon
Checksums ffp , flac-md5
Disc Counts 0 / 0
Media Size
Date Circulated
Date Added
04/24/2018
04/24/2018
Source Summary flac24; Recording Info: UltraMatrix SBD > Cassette Master (TDK MA-R90); Transfer Info: Cassette Master (Nakamichi CR-7A) > Tascam DA-3000 (DSF 1-bit/5.6 MHz) > dBpoweramp > Samplitude Pro X3 Suite > FLAC/24; All Transfers and Mastering By Charlie Miller 
  Archive
Source Information - Download Text | Download Zip
Grateful Dead - July 26, 1987
Anaheim Stadium - Anaheim, CA

Recording Info:
UltraMatrix SBD > Cassette Master (TDK MA-R90)

Transfer Info:
Cassette Master (Nakamichi CR-7A) > Tascam DA-3000 (DSF 1-bit/5.6 MHz) >
dBpoweramp > Samplitude Pro X3 Suite > FLAC/24
(1 Disc FLAC)

All Transfers and Mastering By Charlie Miller
[email protected]
April 23, 2018

Patch Info:
(FOB) Nakamichi 700 (omni) > Cassette Master (shnid=98214) suppliess:
Iko Iko (0:00 - 1:17)
Promised Land (0:02 - 0:11)
Space (3:55 - 4:03)

Notes:
-- Set 3 with Bob Dylan

Set 1:
01 - Iko Iko
02 - New Minglewood Blues
03 - Tons Of Steel
04 - West L.A. Fadeaway
05 - When I Paint My Masterpiece >
06 - Mexicali Blues
07 - Bird Song >
08 - Promised Land

Set 2:
09 - Tuning
10 - Shakedown Street >
11 - Looks Like Rain >
12 - Terrapin Station >
13 - Drums >
14 - Space >
15 - The Other One >
16 - Stella Blue >
17 - Throwing Stones >
18 - Not Fade Away

Set 3:
19 - Mr. Tambourine Man
20 - Dead Man, Dead Man
21 - Maggie's Farm
22 - Simple Twist Of Fate
23 - Watching The River Flow
24 - It's All Over Now, Baby Blue
25 - Chimes Of Freedom
26 - Queen Jane Approximately
27 - Stuck Inside Of Mobile With The Memphis Blues Again
28 - Ballad Of A Thin Man
29 - Rainy Day Women #12 And #35
30 - Gotta Serve Somebody
31 - All Along The Watchtower

Encore:
32 - Encore Break
33 - Touch Of Grey >
34 - Knockin' On Heaven's Door


SHNTOOL OUTPUT:
    length     expanded size    cdr  WAVE problems  fmt   ratio  filename
     6:13.716     215260310 B   cxx   --   ---xx   flac  0.6827  01 Iko Iko.flac
     8:28.368     292819796 B   cxx   --   ---xx   flac  0.6800  02 New Minglewood Blues.flac
     5:31.935     191194892 B   cxx   --   ---xx   flac  0.6929  03 Tons Of Steel.flac
     8:21.234     288710876 B   cxx   --   ---xx   flac  0.6878  04 West LA Fadeaway.flac
     3:42.886     128382302 B   cxx   --   ---xx   flac  0.7005  05 When I Paint My Masterpiece.flac
     4:51.623     167974808 B   cxx   --   ---xx   flac  0.7016  06 Mexicali Blues.flac
     8:40.117     299587712 B   cxx   --   ---xx   flac  0.6982  07 Bird Song.flac
     4:24.633     152428832 B   cxx   --   ---xx   flac  0.6922  08 Promised Land.flac
     0:31.778      18304052 B   cxx   --   ---xx   flac  0.6648  09 Tuning.flac
    11:47.645     407603432 B   cxx   --   ---xx   flac  0.6893  10 Shakedown Street.flac
     8:26.499     291743276 B   cxx   --   ---xx   flac  0.6849  11 Looks Like Rain.flac
    11:41.593     404117570 B   cxx   --   ---xx   flac  0.6898  12 Terrapin Station.flac
     8:44.785     302275994 B   cxx   --   ---xx   flac  0.6525  13 Drums.flac
     6:24.045     221210204 B   cxx   --   ---xx   flac  0.6801  14 Space.flac
     6:41.918     231505016 B   cxx   --   ---xx   flac  0.6896  15 The Other One.flac
     7:15.362     250768532 B   cxx   --   ---xx   flac  0.6838  16 Stella Blue.flac
     8:46.062     303011846 B   cxx   --   ---xx   flac  0.6858  17 Throwing Stones.flac
     8:58.318     310071038 B   cxx   --   ---xx   flac  0.6832  18 Not Fade Away.flac
     5:04.209     175224362 B   cxx   --   ---xx   flac  0.7110  19 Mr Tambourine Man.flac
     6:20.564     219205172 B   cxx   --   ---xx   flac  0.6996  20 Dead Man, Dead Man.flac
     5:15.362     181648586 B   cxx   --   ---xx   flac  0.7093  21 Maggie's Farm.flac
     6:16.202     216692264 B   cxx   --   ---xx   flac  0.7097  22 Simple Twist Of Fate.flac
     4:32.540     156983360 B   cxx   --   ---xx   flac  0.7051  23 Watching The River Flow.flac
     6:24.675     221572688 B   cxx   --   ---xx   flac  0.6933  24 It's All Over Now, Baby Blue.flac
     7:10.775     248126570 B   cxx   --   ---xx   flac  0.6967  25 Chimes Of Freedom.flac
     4:15.428     147126644 B   cxx   --   ---xx   flac  0.7001  26 Queen Jane Approximately.flac
     7:29.185     258730610 B   cxx   --   ---xx   flac  0.6976  27 Stuck Inside Of Mobile With The Memphis Blues Again.flac
     6:52.910     237836084 B   cxx   --   ---xx   flac  0.6880  28 Ballad Of A Thin Man.flac
     5:19.292     183912338 B   cxx   --   ---xx   flac  0.6913  29 Rainy Day Women #12 And #35.flac
     6:03.717     209501186 B   cxx   --   ---xx   flac  0.6894  30 Gotta Serve Somebody.flac
     6:29.192     224174744 B   cxx   --   ---xx   flac  0.6956  31 All Along The Watchtower.flac
     3:58.657     137466572 B   cxx   --   ---xx   flac  0.6686  32 Encore Break.flac
     6:21.436     219707246 B   cxx   --   ---xx   flac  0.6934  33 Touch Of Grey.flac
    11:04.071     382505096 B   cxx   --   ---xx   flac  0.6834  34 Knockin' On Heaven's Door.flac
   228:30.734    7897384010 B                            0.6898  (34 files)


Show Checksums
ffp
01 Iko Iko.flac:0e8ed930049d5f4aa0f7219a121bb8cb
02 New Minglewood Blues.flac:a338ebc6dc8bfb6d88f0e578f079ff11
03 Tons Of Steel.flac:b2379247b30b7e1de4611a56eab7c6a8
04 West LA Fadeaway.flac:ed391c14bb284cfb0f69a233d818a9a6
05 When I Paint My Masterpiece.flac:fe913c478bde94a09a527e6be810ab6b
06 Mexicali Blues.flac:288b89e400b7eeb4a63f4680a43af151
07 Bird Song.flac:7e741369a7b9b3cb8719247f4e1519d2
08 Promised Land.flac:405e0db5b108b0cd7cb2d1d2218b0679
09 Tuning.flac:f1fb486a24ec0dcbe169cc2b155ab1da
10 Shakedown Street.flac:ebdd66f90aba86431e66e350098e0ccc
11 Looks Like Rain.flac:432c143fda41d19e671970fd143f2d78
12 Terrapin Station.flac:aab5eadf128de443983bc6f1851c1ce6
13 Drums.flac:14977eaf03e94d38c34e55ab95864327
14 Space.flac:ccf02e011f5e219c4693bac4766596c6
15 The Other One.flac:ac39ad7fa34960a0b17fccc92dc50641
16 Stella Blue.flac:98717a249ca4151d3dea77bc489f43ab
17 Throwing Stones.flac:1b28c123f8707e5bc66b709a8690c366
18 Not Fade Away.flac:1fcdd3a75dfbf52e54318bdefaf41e8b
19 Mr Tambourine Man.flac:56dac9f7c512d4b40f955e080a7ab102
20 Dead Man, Dead Man.flac:fba8b89e54852325be3543711fdd5bcc
21 Maggie's Farm.flac:21a0dc89823b8f783d25e3707339cc11
22 Simple Twist Of Fate.flac:a97b52e12c7838fc1aa503658bc36cfe
23 Watching The River Flow.flac:118628fcde1ecfe74769fdf710fb099a
24 It's All Over Now, Baby Blue.flac:6c8012ffae182fde2174c29bbb2301c3
25 Chimes Of Freedom.flac:1bda07f9ee943762406124d5bb2f39b4
26 Queen Jane Approximately.flac:0856630b3b54d14dd744da43f4cc90b9
27 Stuck Inside Of Mobile With The Memphis Blues Again.flac:df9df3e010896fa67300f4f2d0502092
28 Ballad Of A Thin Man.flac:0b82fb1a972f7f4ca99d3e112a97ade4
29 Rainy Day Women #12 And #35.flac:9aa87a779cb2da49decf49e0eb0d213a
30 Gotta Serve Somebody.flac:149c6ec3472dd297d22d6981c12b821d
31 All Along The Watchtower.flac:700d9c01b83243e9c305962eecf443a0
32 Encore Break.flac:7dba1dfc2fa0bf64a929db44201f1a11
33 Touch Of Grey.flac:a05b124d2651d590a1edda5659d050bd
34 Knockin' On Heaven's Door.flac:f104458e4e58854d6942cde0a57a10c1
flac-md5
a30f97f4d9b1cdde1f02b6c0505081e7 *01 Iko Iko.flac
a55ed96722b4d86ff5876ed8b91bd01d *02 New Minglewood Blues.flac
86db244d3cb229e00086e5c31448d0e9 *03 Tons Of Steel.flac
5a56d2c4c722fc21b831e3e196a6565c *04 West LA Fadeaway.flac
21e595d21cd3cd3d816566e70b9b5358 *05 When I Paint My Masterpiece.flac
c1fba20098abd09cfa62698e96fd20c2 *06 Mexicali Blues.flac
c09d0ca94d95f71b9f33793494ded4a2 *07 Bird Song.flac
e45751088c84b0e75848ec5fbeb6cfff *08 Promised Land.flac
0acfa3a2a163d702d7a87c7829e0dd21 *09 Tuning.flac
35801ed77f4d4ae21a7f8eec20fa9bb3 *10 Shakedown Street.flac
da12e244d83338615cc907e4cf37a253 *11 Looks Like Rain.flac
4884ff6390d8fd5f4bd4cd3b28a6841a *12 Terrapin Station.flac
6328780fe6f972395efe8890bc0589f1 *13 Drums.flac
ebba03595619812631f1cbd40b4b4cd0 *14 Space.flac
2dace5bb6707f7c4447ac0c2292449a9 *15 The Other One.flac
ae01f9e2296f9e396d05747fdeed6436 *16 Stella Blue.flac
05555a359e12aaf176b89571dc725509 *17 Throwing Stones.flac
f2fa7839489cf1bbdae58e3484efc662 *18 Not Fade Away.flac
78d093f91c578d11fba718fe5a50b6df *19 Mr Tambourine Man.flac
0af918c0b5b2b1ed0ce1bff5d19d3816 *20 Dead Man, Dead Man.flac
60ffd226bf352aa2dd7d5f4c3f27a4c5 *21 Maggie's Farm.flac
95f46903023542e24b4f0c47286ab0d5 *22 Simple Twist Of Fate.flac
4fabc899696cd1121d0de4ee2953eead *23 Watching The River Flow.flac
89e86dcd349e3c1582925d0466cd07b8 *24 It's All Over Now, Baby Blue.flac
a145b9cb391d9330adaf0f5695a829a8 *25 Chimes Of Freedom.flac
c905494397165ddc26265309b66a15cb *26 Queen Jane Approximately.flac
45e44ab163f3ad81ab21a78978e5565d *27 Stuck Inside Of Mobile With The Memphis Blues Again.flac
c69d9c00cf67a73b4d71684875933d21 *28 Ballad Of A Thin Man.flac
ae09b00792389e57e88fbbc2f04e96cd *29 Rainy Day Women #12 And #35.flac
ad6d99eea51368fc7520846521a3c6c0 *30 Gotta Serve Somebody.flac
b213c9d7d9424015519bb78c0543ef56 *31 All Along The Watchtower.flac
a3bfb24586184ce49349bd2273091334 *32 Encore Break.flac
e4fd53b26fb58e9c919d0df33c148c73 *33 Touch Of Grey.flac
1583c20a29b0912f32dce24127b26d53 *34 Knockin' On Heaven's Door.flac

Comments
Add Comment
Other Sources (comments)
Soundboard > ? > SHN... (2) flac16; Modified Nak... (2) flac16; Source: 1x... (0) flac16; Set 3... (0) flac16; Source:... (0) flac16; Recording... (0)
Date User Comment