Browse Collections Artists Sources   Search Dates

Add Show    List Management    Help


Grateful Dead 06/27/83
Poplar Creek Music Theatre, Hoffman Estates, IL
Comments Add Comment    Source Collectors    Add to Collection    Add to Want List    History
Source # 141770 Other Sources
Entered by Matt Vernon
Checksums ffp , flac-md5
Disc Counts 0 / 0
Media Size
Date Circulated
Date Added
04/26/2018
04/26/2018
Source Summary flac16; Updated Recording Info: FOB Sennheiser 441 mics > Canare Cable > Technics SV100 PCM > Panasonic VHS; Taper: Timon Malloy; Master FOB PCM; Transfer Info: PCM (Sony SL-10)> Sony PCM-601ESD > Behringer Ultramatch Pro > Tascam DA-3000 (wav 16-bit/44.1k)> Adobe Audition 3.0 > TLH flac16 
  Archive
Source Information - Download Text | Download Zip
Grateful Dead
Poplar Creek Music Theatre
Hoffman Estates, IL
Monday June 27th, 1983

Updated Recording Info: (FOB) Sennheiser 441 mics > Canare Cable > Technics SV100 PCM > Panasonic VHS

Taper: Timon Malloy (friend of Jeff Silberman) Master Audience PCM

(Had been marked: Master FOB PCM (believed to be Jeff Silberman's); Sennheiser 441 mics > PCM)

Transfer Info:
PCM (Sony SL-10)> Sony PCM-601ESD > Behringer Ultramatch Pro > Tascam DA-3000 (wav 16-bit/44.1k)> Adobe Audition 3.0 > TLH flac16

Notes:
- Thanks to Tim Dalton for the source PCM
- Thanks to Charlie Miller for the transfer and coordinating this effort
- Thanks to Paul B. and Ernie Dodd for the shnid9994 audience source which supplies the first 0:40 of "Bertha", as well as a handful of micro-second dropouts throughout "Bertha" and "Promised Land"
- Other One space included in "The Other One"

Mastered by Scott Clugston
April 24, 2018

Set One:
t01 - Bertha >
t02 - Promised Land
t03 - Dupree's Diamond Blues
t04 - New Minglewood Blues
t05 - Bird Song
t06 - Me And My Uncle >
t07 - Mexicali Blues
t08 - Cold Rain & Snow >
t09 - Hell In A Bucket >
t10 - Sugaree

Set Two:
t11 - Scarlet Begonias >
t12 - Fire On The Mountain >
t13 - Estimated Prophet >
t14 - Truckin' >
t15 - Drums >
t16 - Space >
t17 - The Other One >
t18 - The Wheel >
t19 - Good Lovin'
Encore:
t20 - US Blues


    length     expanded size    cdr  WAVE problems  fmt   ratio  filename
     6:34.19       69546332 B   ---   --   ---xx   flac  0.6284  gd83-06-27 t01 Bertha.flac
     4:33.73       48328940 B   ---   --   ---xx   flac  0.6079  gd83-06-27 t02 Promised Land.flac
     6:49.04       72157052 B   ---   --   ---xx   flac  0.5858  gd83-06-27 t03 Dupree's Diamond Blues.flac
     9:02.33       95686460 B   ---   --   ---xx   flac  0.6197  gd83-06-27 t04 New Minglewood Blues.flac
    11:02.05      116788604 B   ---   --   ---xx   flac  0.6070  gd83-06-27 t05 Bird Song.flac
     3:00.39       31843772 B   ---   --   ---xx   flac  0.6333  gd83-06-27 t06 Me & My Uncle.flac
     5:13.16       55250876 B   ---   --   ---xx   flac  0.6365  gd83-06-27 t07 Mexicali Blues.flac
     5:54.02       62450348 B   ---   --   ---xx   flac  0.6213  gd83-06-27 t08 Cold Rain & Snow.flac
     5:35.40       59188124 B   ---   --   ---xx   flac  0.6456  gd83-06-27 t09 Hell In A Bucket.flac
    11:32.45      122174684 B   ---   --   ---xx   flac  0.6269  gd83-06-27 t10 Sugaree.flac
    14:18.25      151410044 B   ---   --   ---xx   flac  0.6158  gd83-06-27 t11 Scarlet Begonias.flac
    11:20.38      120041420 B   ---   --   ---xx   flac  0.6103  gd83-06-27 t12 Fire On The Mountain.flac
    12:13.09      129322412 B   ---   --   ---xx   flac  0.6188  gd83-06-27 t13 Estimated Prophet.flac
     7:56.44       84069932 B   ---   --   ---xx   flac  0.6508  gd83-06-27 t14 Truckin'.flac
     5:17.73       56090540 B   ---   --   ---xx   flac  0.5455  gd83-06-27 t15 Drums.flac
     8:21.41       88472876 B   ---   --   ---xx   flac  0.4483  gd83-06-27 t16 Space.flac
    10:49.35      114565964 B   ---   --   ---xx   flac  0.5742  gd83-06-27 t17 The Other One.flac
     4:48.38       50892620 B   ---   --   ---xx   flac  0.5836  gd83-06-27 t18 The Wheel.flac
     9:00.57       95390108 B   ---   --   ---xx   flac  0.6392  gd83-06-27 t19 Good Lovin'.flac
     5:11.02       54865148 B   ---   --   ---xx   flac  0.6228  gd83-06-27 t20 US Blues.flac
   158:35.38     1678536256 B                            0.6056  (20 files)


Show Checksums
ffp
gd83-06-27 t01 Bertha.flac:292537a280334e9a181264fe6cac7c2e
gd83-06-27 t02 Promised Land.flac:5809bf4ce6eebf00d8c3153a461fb368
gd83-06-27 t03 Dupree's Diamond Blues.flac:e80d47ed598efb1e0dacd5b2f9418ac2
gd83-06-27 t04 New Minglewood Blues.flac:f6292d66f5b87425611b2ccee01a6fac
gd83-06-27 t05 Bird Song.flac:19b56b6925512d4d626df18a1adfc7cf
gd83-06-27 t06 Me & My Uncle.flac:26eed59e0d078ba7da1d546f26f1ee93
gd83-06-27 t07 Mexicali Blues.flac:92b80a4b2992d5762b774da6967c70eb
gd83-06-27 t08 Cold Rain & Snow.flac:9a9692d11f412398cba9283ae46aa023
gd83-06-27 t09 Hell In A Bucket.flac:1ec19a829ace9ab54b8931170c87ac4f
gd83-06-27 t10 Sugaree.flac:5cb68ac1be2803a62ea0153555bc66d1
gd83-06-27 t11 Scarlet Begonias.flac:d6b0f9820b858c534c573ba83c089474
gd83-06-27 t12 Fire On The Mountain.flac:f134688020a6b696ffaea90aad4d5b42
gd83-06-27 t13 Estimated Prophet.flac:ca873958c2c5f99514c2a2433b621936
gd83-06-27 t14 Truckin'.flac:3b8716b76a16221907030d160a394e1c
gd83-06-27 t15 Drums.flac:48be529a7a38e55b229fb2565311c8a5
gd83-06-27 t16 Space.flac:60fc6be5ee173de2f5985f6ecbb7646e
gd83-06-27 t17 The Other One.flac:561dcb1a7e1db97d077ebdddc0a927f6
gd83-06-27 t18 The Wheel.flac:92cf0ccf693e20cea3489a7c10dfde83
gd83-06-27 t19 Good Lovin'.flac:09a33898df5da0b76d4ae21d3772352e
gd83-06-27 t20 US Blues.flac:60651db69214901f23477524638f2404
flac-md5
511778308c8249b09623a57f17bab1d6 *gd83-06-27 t01 Bertha.flac
2b334f6b2197391a6f21029f568c064d *gd83-06-27 t02 Promised Land.flac
4f59e673f0c896536c84bf53c8dcb57c *gd83-06-27 t03 Dupree's Diamond Blues.flac
bd6c5251c793b3184d1d655fdce1abac *gd83-06-27 t04 New Minglewood Blues.flac
90a424806d8832db2b0ad9e75d24bc08 *gd83-06-27 t05 Bird Song.flac
cc5056dd3d116d81d54b70199a65081f *gd83-06-27 t06 Me & My Uncle.flac
ec93f48e61ed5419ebca74a8b311ccfe *gd83-06-27 t07 Mexicali Blues.flac
a5ee619df81f2993e6fbb9faf220fcfb *gd83-06-27 t08 Cold Rain & Snow.flac
0b09f232752a88753c45183fe175faa3 *gd83-06-27 t09 Hell In A Bucket.flac
8136de12b84cc85300b1050648ce4d15 *gd83-06-27 t10 Sugaree.flac
a6846a164516f71e2e27e2258a254f41 *gd83-06-27 t11 Scarlet Begonias.flac
081e999c1c45a0d8a7165c95a8c52254 *gd83-06-27 t12 Fire On The Mountain.flac
f726de896d41d40fd0b08709077063fb *gd83-06-27 t13 Estimated Prophet.flac
58678181f5ea4b86e8876a30a8d6a492 *gd83-06-27 t14 Truckin'.flac
909bdc21803efd9ef5380805d9438218 *gd83-06-27 t15 Drums.flac
16e73f3a379e281e319e2a43dd41c953 *gd83-06-27 t16 Space.flac
a8ee431fbbd4c27c71aa392fa0dda98b *gd83-06-27 t17 The Other One.flac
c3d5292df6b181c03dee317d2e9a9415 *gd83-06-27 t18 The Wheel.flac
6fa9e05dfc2774884259316297940e28 *gd83-06-27 t19 Good Lovin'.flac
f910847a71e273776705ac78fe982098 *gd83-06-27 t20 US Blues.flac

Comments
Add Comment
Other Sources (comments)
Aud>Cass Master>C>DAT>CDR;... (2) flac16; Recording... (0) flac16; Sennheisser... (1) flac24; Master... (0) flac16; Master... (0) flac24; Robert... (0) flac16; Robert... (0) flac16/44.1 ... (0) flac24/48 Master:... (0)
Date User Comment