Browse Collections Artists Sources   Search Dates

Add Show    List Management    Help


Phil Lesh & Friends 04/21/18
Wanee Festival, Live Oak, FL
Comments Add Comment    Source Collectors    Add to Collection    Add to Want List    History
Source # 141778 Other Sources
Entered by Matt Vernon
Checksums ffp , flac-md5
Disc Counts 0 / 0
Media Size
Date Circulated
Date Added

04/28/2018
Source Summary flac16 44.1khz Source: AKG c480b/ck63 (approx din, jroc, fob 12')>V3 (24/96)>sd722 Transfer: firewire>wavelab 6.10 [Crystal Resampler (downsample) iZotope Ozone 4 (dither)]>CDWav (splits)>FLACFrontend level 6>foobar2000 (tagging) taped and transferred by John Barren A Team Dirty South Recording Home Team 
  Archive
Source Information - Download Text | Download Zip
Phil Lesh and the Terrapin Family Band
2018-04-21
Wanee, Peach Stage, Spirit of the Suwannee Music Park, Live Oak, Fl.

Source: AKG c480b/ck63 (approx din, jroc, fob 12')>V3 (24/96)>sd722
Transfer: firewire>wavelab 6.10 [Crystal Resampler (downsample) iZotope Ozone 4 (dither)]>CDWav (splits)>FLACFrontend level 6>foobar2000 (tagging)
taped and transferred by John Barren
A Team Dirty South Recording
Home Team

Set 1
01. Bertha
02. Sweet Jane
03. [email protected]
04. Shakedown Street
05. West LA Fadeaway#>
06. Samson and Delilah#
07. Box of Rain

Set 2
01. Tangled Up in Blue^
02. Help on the Way> Slipknot>
03. Uncle John's Band
04. China Cat Sunflower>
05. St. Stephen>
06. Not Fade Away
07. Throwing Stones
08. Ripple

@ w/ Neal Casal guitar
# w/ Marcus King guitar and vocals
^ w/ Adam MacDougall keyboards

Shntool 3.0.4
    length     expanded size    cdr  WAVE problems  fmt   ratio  filename
    11:11.16      118402076 B   ---   --   ---xx   flac  0.4574  ptfb2018-04-21s1t01.flac
    10:38.38      112632620 B   ---   --   ---xx   flac  0.4909  ptfb2018-04-21s1t02.flac
    12:40.01      134066396 B   ---   --   ---xx   flac  0.4256  ptfb2018-04-21s1t03.flac
    12:03.34      127617212 B   ---   --   ---xx   flac  0.4568  ptfb2018-04-21s1t04.flac
    13:16.42      140513228 B   ---   --   ---xx   flac  0.4414  ptfb2018-04-21s1t05.flac
     7:49.51       82851596 B   ---   --   ---xx   flac  0.4590  ptfb2018-04-21s1t06.flac
     7:09.44       75779132 B   ---   --   ---xx   flac  0.4546  ptfb2018-04-21s1t07.flac
    11:58.28      126721100 B   ---   --   ---xx   flac  0.4663  ptfb2018-04-21s2t01.flac
    13:03.29      138189452 B   ---   --   ---xx   flac  0.4662  ptfb2018-04-21s2t02.flac
    10:17.41      108935276 B   ---   --   ---xx   flac  0.4662  ptfb2018-04-21s2t03.flac
     8:44.47       92544188 B   ---   --   ---xx   flac  0.4602  ptfb2018-04-21s2t04.flac
    12:23.73      131236940 B   ---   --   ---xx   flac  0.4983  ptfb2018-04-21s2t05.flac
    10:04.29      106613852 B   ---   --   ---xx   flac  0.4727  ptfb2018-04-21s2t06.flac
     9:11.05       97208204 B   ---   --   ---xx   flac  0.4912  ptfb2018-04-21s2t07.flac
     4:41.02       49573148 B   ---   --   ---xx   flac  0.5009  ptfb2018-04-21s2t08.flac
   155:13.30     1642884420 B                            0.4654  (15 files)




Show Checksums
ffp
philtfb2018-04-21s1t01.flac:8e87d3350ded6d06cbf8ec044a2f1f92
philtfb2018-04-21s1t02.flac:af25158dafc15e42f4bffe7217f6ec76
philtfb2018-04-21s1t03.flac:b06026ee9f7e18ecf06361c8b6176cbb
philtfb2018-04-21s1t04.flac:842b2b3bddcd7953aa5918136703ea8a
philtfb2018-04-21s1t05.flac:351fad1bfa7b63d807787bd3abafaa93
philtfb2018-04-21s1t06.flac:a866770f17ab6b25d85893b68bf35004
philtfb2018-04-21s1t07.flac:b1c1b25fea4aeb5cde6e14af6df635cc
philtfb2018-04-21s2t01.flac:52ccc8e7b8a003bf8317c0d8a44349b8
philtfb2018-04-21s2t02.flac:6fc2a48f6606874c9b52ca7034c3ffc9
philtfb2018-04-21s2t03.flac:edd1532d44798c93fa649b50f69a1a04
philtfb2018-04-21s2t04.flac:9f0fa2ccc118cc3b1b3e748c2fe7bb8a
philtfb2018-04-21s2t05.flac:5b1ffd28c37688f832b07fdfc691712e
philtfb2018-04-21s2t06.flac:af9c84f0d32f41c11d442c1b400e301f
philtfb2018-04-21s2t07.flac:88c89747e9b4ab8bfa06fdebc73da103
philtfb2018-04-21s2t08.flac:45fd4994e6dd3c27392dc15e87290665
flac-md5
80984c01a7ca33f50ac3c119e2707988 *philtfb2018-04-21s1t01.flac
6ce6ca5fea48ab00fbf89df83f7e92fa *philtfb2018-04-21s1t02.flac
2a1b7792f02eae7cb452225344fdd60e *philtfb2018-04-21s1t03.flac
e0f17aaf4927d46a541c13e4894ea064 *philtfb2018-04-21s1t04.flac
1afb3b9551b316237983685f456a345a *philtfb2018-04-21s1t05.flac
681ec564a06d19a242f199160d134a80 *philtfb2018-04-21s1t06.flac
13d0559395fde251670bc695d1295000 *philtfb2018-04-21s1t07.flac
dc27fd2633aa570c020c35ecd56153ef *philtfb2018-04-21s2t01.flac
1c71b1e7965cfd22b278c219022b65e6 *philtfb2018-04-21s2t02.flac
f00d5b8d2e594322fa09e90f23b6fe74 *philtfb2018-04-21s2t03.flac
0b832dddcf53f71fa3d03abd4622777d *philtfb2018-04-21s2t04.flac
673f7725552d4c4a1371df88fb644d88 *philtfb2018-04-21s2t05.flac
6231833d5ef6b0fe3b16e5b7eecce195 *philtfb2018-04-21s2t06.flac
f9dd9ab282e219d8394583c066c36394 *philtfb2018-04-21s2t07.flac
eee90326a976f9665401c6c2c5b0cbad *philtfb2018-04-21s2t08.flac

Comments
Add Comment
Other Sources (comments)
flac16 44.1kkhz... (0) flac16 44.1khz ... (0) flac24 48khz ... (0)
Date User Comment