Browse Collections Artists Sources   Search Dates

Add Show    List Management    Help


Grateful Dead 08/07/82
Alpine Valley Music Theatre, East Troy, WI
Comments Add Comment    Source Collectors    Add to Collection    Add to Want List    History
Source # 141795 Other Sources
Entered by Matt Vernon
Checksums ffp , flac-md5
Disc Counts 0 / 0
Media Size
Date Circulated
Date Added
04/29/2018
04/29/2018
Source Summary flac16; Source Info: Dan Healy's Master Soundboard Cassettes (Sony TC-D5M/TDK MA-R90/Dolby B)> Frank Streeter's 1st generation 1/4 track Reels @ 3.75 ips (Sony TC770/Maxell UD35-90B)> Tim Dalton's PCM (Sony SLHF400/Sony HG betamax tape); Transfer Info: PCM (Sony SL-10)> Sony PCM-601ESD > Behringer Ultramatch Pro > Tascam DA-3000 (wav 16-bit/44.1k)> Adobe Audition 3.0 > TLH flac16 
  Archive
Source Information - Download Text | Download Zip
Grateful Dead
Alpine Valley Music Theatre
East Troy, WI
Saturday August 7th, 1982

Source Info:
Dan Healy's Master Soundboard Cassettes (Sony TC-D5M/TDK MA-R90/Dolby B)> Frank Streeter's 1st generation 1/4 track Reels @ 3.75 ips (Sony TC770/Maxell UD35-90B)> Tim Dalton's PCM (Sony SLHF400/Sony HG betamax tape)

Transfer Info:
PCM (Sony SL-10)> Sony PCM-601ESD > Behringer Ultramatch Pro > Tascam DA-3000 (wav 16-bit/44.1k)> Adobe Audition 3.0 > TLH flac16

Notes:
- Thanks to Frank Streeter for the 1st generation Reels
- Thanks to Tim Dalton for the PCM source
- Thanks to Charlie Miller for the transfer and coordinating this effort
- Thanks to Charlie Miller for the shnid137625 soundboard source which supplies the first 0:24 of "The Music Never Stopped"
- Wheel space included in "The Wheel"
- Pitch corrected
- Transitions smoothed

Mastered by Scott Clugston
April 12, 2018

Set One:
t01 - Tuning
t02 - The Music Never Stopped >
t03 - Sugaree >
t04 - The Music Never Stopped
t05 - Me And My Uncle >
t06 - Big River
t07 - It Must Have Been The Roses
t08 - CC Rider
t09 - Ramble On Rose
t10 - Beat It On Down The Line >
t11 - On The Road Again
t12 - Althea >
t13 - Let It Grow

Set 2:
t14 - Tuning
t15 - China Cat Sunflower >
t16 - I Know You Rider >
t17 - Man Smart, Woman Smarter
t18 - Ship Of Fools
t19 - Playin' In The Band >
t20 - Drums >
t21 - Space >
t22 - The Wheel >
t23 - Playin' In The Band Reprise >
t24 - Morning Dew >
t25 - One More Saturday Night
Encore:
t26 - US Blues



    length     expanded size    cdr  WAVE problems  fmt   ratio  filename
     2:02.08       21539660 B   ---   --   ---xx   flac  0.5412  gd82-08-07 t01 Tuning.flac
     4:19.26       45748796 B   ---   --   ---xx   flac  0.7139  gd82-08-07 t02 The Music Never Stopped.flac
    10:12.64      108107372 B   ---   --   ---xx   flac  0.7220  gd82-08-07 t03 Sugaree.flac
     4:27.63       47247020 B   ---   --   ---xx   flac  0.7086  gd82-08-07 t04 The Music Never Stopped.flac
     3:08.28       33229100 B   ---   --   ---xx   flac  0.7264  gd82-08-07 t05 Me & My Uncle.flac
     6:31.74       69146492 B   ---   --   ---xx   flac  0.7229  gd82-08-07 t06 Big River.flac
     6:07.55       64868204 B   ---   --   ---xx   flac  0.6836  gd82-08-07 t07 It Must Have Been The Roses.flac
     7:29.45       79309484 B   ---   --   ---xx   flac  0.7207  gd82-08-07 t08 CC Rider.flac
     7:57.15       84178124 B   ---   --   ---xx   flac  0.7016  gd82-08-07 t09 Ramble On Rose.flac
     3:16.27       34637948 B   ---   --   ---xx   flac  0.7206  gd82-08-07 t10 Beat It On Down The Line.flac
     3:00.36       31836716 B   ---   --   ---xx   flac  0.7072  gd82-08-07 t11 On The Road Again.flac
     8:17.49       87786092 B   ---   --   ---xx   flac  0.6973  gd82-08-07 t12 Althea.flac
    11:52.44      125700332 B   ---   --   ---xx   flac  0.7118  gd82-08-07 t13 Let It Grow.flac
     0:45.69        8100332 B   ---   --   ---xx   flac  0.5983  gd82-08-07 t14 Tuning.flac
     7:50.63       83056220 B   ---   --   ---xx   flac  0.7008  gd82-08-07 t15 China Cat Sunflower.flac
     6:32.52       69271148 B   ---   --   ---xx   flac  0.7117  gd82-08-07 t16 I Know You Rider.flac
     9:10.39       97111772 B   ---   --   ---xx   flac  0.6949  gd82-08-07 t17 Man Smart (Woman Smarter).flac
     6:49.65       72300524 B   ---   --   ---xx   flac  0.6785  gd82-08-07 t18 Ship Of Fools.flac
    10:27.08      110621660 B   ---   --   ---xx   flac  0.7164  gd82-08-07 t19 Playin' In The Band.flac
     8:22.13       88583420 B   ---   --   ---xx   flac  0.6855  gd82-08-07 t20 Drums.flac
     4:24.37       46656668 B   ---   --   ---xx   flac  0.6203  gd82-08-07 t21 Space.flac
     6:52.65       72829724 B   ---   --   ---xx   flac  0.6763  gd82-08-07 t22 The Wheel.flac
     4:16.22       45210188 B   ---   --   ---xx   flac  0.6946  gd82-08-07 t23 Playin' In The Band Reprise.flac
    10:25.17      110290028 B   ---   --   ---xx   flac  0.6693  gd82-08-07 t24 Morning Dew.flac
     5:04.09       53646812 B   ---   --   ---xx   flac  0.6954  gd82-08-07 t25 One More Saturday Night.flac
     5:18.51       56215196 B   ---   --   ---xx   flac  0.6783  gd82-08-07 t26 US Blues.flac
   165:04.69     1747229032 B                            0.6962  (26 files)


Show Checksums
ffp
gd82-08-07 t01 Tuning.flac:73e5ad0543f922b22fc3e8467a4d70c9
gd82-08-07 t02 The Music Never Stopped.flac:a0f9cbdfcf0c73816c052c1289d94cc0
gd82-08-07 t03 Sugaree.flac:f5f15f22129644a4d6538b2b35f70a6f
gd82-08-07 t04 The Music Never Stopped.flac:80a39f7ef17c2f3d2a713dd048e75088
gd82-08-07 t05 Me & My Uncle.flac:20b075d430c6c92d22421ed086a47a4a
gd82-08-07 t06 Big River.flac:fd0186580cde8dbacc15c31a676e0c83
gd82-08-07 t07 It Must Have Been The Roses.flac:a6bee6dd26316f9477a0ef0f3f904a08
gd82-08-07 t08 CC Rider.flac:91c1fc2743b820f2eec64e165397a1d4
gd82-08-07 t09 Ramble On Rose.flac:2f69a80007847098a0a6fc1f19b85975
gd82-08-07 t10 Beat It On Down The Line.flac:b5639ae0c1fb21e448c111373e6f1bf8
gd82-08-07 t11 On The Road Again.flac:59930b78df260dd09b2e982c9a185cd0
gd82-08-07 t12 Althea.flac:a8e0f37296cf1fa9e415c959949ba46b
gd82-08-07 t13 Let It Grow.flac:78242326e364ca00a4c8210ebc1a026f
gd82-08-07 t14 Tuning.flac:9b2b1dcbb7acf4a642c1743eec9a369e
gd82-08-07 t15 China Cat Sunflower.flac:a71f5b91bf5606f51304df022012e859
gd82-08-07 t16 I Know You Rider.flac:97f9fafa448edabc2d82afb47c8e3271
gd82-08-07 t17 Man Smart (Woman Smarter).flac:adbe22839029dd90528f4268e8395718
gd82-08-07 t18 Ship Of Fools.flac:c01cdc0fdd3c97c259b7dc8a892c677b
gd82-08-07 t19 Playin' In The Band.flac:e1a56956c146522073bc195b29e9c288
gd82-08-07 t20 Drums.flac:7c0c9824c10c65f7f5324409486e3e42
gd82-08-07 t21 Space.flac:f523498ed381aaa920772a5fc47f3a23
gd82-08-07 t22 The Wheel.flac:f61d97ddce982e5b41dc4756a72918b7
gd82-08-07 t23 Playin' In The Band Reprise.flac:00c35237b57bbc2d891ce0d02f673e1a
gd82-08-07 t24 Morning Dew.flac:6878edf61428b2ee719dabb09d6eab75
gd82-08-07 t25 One More Saturday Night.flac:29fe1649751e5c5a4284ac260130c5d6
gd82-08-07 t26 US Blues.flac:4a444744507244007814f7e0a7a1752f
flac-md5
de2c4138fa5d5ebbd45d2fc6d4e30e54 *gd82-08-07 t01 Tuning.flac
1b523a758869808d4e20aeb78bee1056 *gd82-08-07 t02 The Music Never Stopped.flac
11e6e9a68a23f6adf5f36651489717b7 *gd82-08-07 t03 Sugaree.flac
6e52f543047c0401d22549d9270f110d *gd82-08-07 t04 The Music Never Stopped.flac
ab6b261d217072f6495a0c1edec58ec6 *gd82-08-07 t05 Me & My Uncle.flac
764981b29f2f865114918bd45be16b46 *gd82-08-07 t06 Big River.flac
37b900a8e63d9607736c7e95e65885cf *gd82-08-07 t07 It Must Have Been The Roses.flac
376f8be4b139f12a4de0daa7d1e55bd9 *gd82-08-07 t08 CC Rider.flac
39ad5b1467ec18fbfe136e68fce178dd *gd82-08-07 t09 Ramble On Rose.flac
157892504366dac98c7ea18dadc7e297 *gd82-08-07 t10 Beat It On Down The Line.flac
ddf030c44ac5dc5c8e574b7b825d015b *gd82-08-07 t11 On The Road Again.flac
521566c9ace00aafda3cb1939d008f2c *gd82-08-07 t12 Althea.flac
3719f04bc116efbbbd900a600d2cf1fd *gd82-08-07 t13 Let It Grow.flac
4464684f509cf4eb1ebfd9d1dfb64a10 *gd82-08-07 t14 Tuning.flac
b0e607aac204a64aa1f454c39f2c0aab *gd82-08-07 t15 China Cat Sunflower.flac
89866c377fb8e052374b81b41ecfbc7a *gd82-08-07 t16 I Know You Rider.flac
a65089e0fda3e238343b0ef5debfd0ff *gd82-08-07 t17 Man Smart (Woman Smarter).flac
a1076231882ba04452dc3ec0b6b2f7e8 *gd82-08-07 t18 Ship Of Fools.flac
5e8b27d4caf65eda5ac4427a94e0e0a1 *gd82-08-07 t19 Playin' In The Band.flac
89941fa11e4d57f657358c0fee5f54bc *gd82-08-07 t20 Drums.flac
f67f7c4691370fde25f118962d3e5b00 *gd82-08-07 t21 Space.flac
55f536fd7eaf8ca2908e66894e274832 *gd82-08-07 t22 The Wheel.flac
d820e0d384027c342a9afa44f181b7cf *gd82-08-07 t23 Playin' In The Band Reprise.flac
d394673376c88f7e0367f2f774673b4d *gd82-08-07 t24 Morning Dew.flac
6550e8d849feacef3276c25faab33838 *gd82-08-07 t25 One More Saturday Night.flac
e45a3643666e7d1ae6abbdd075336774 *gd82-08-07 t26 US Blues.flac

Comments
Add Comment
Other Sources (comments)
sbd> mc> pcm> dats> wave>... (0) SBD : MC > MR > DAT > CDR... (0) SBD > PCM > ? > D > Serafin... (1) flac16; Source:... (1) flac16; Set 2 -... (0) flac16; Recording... (0) flac16 44.1khz Set... (0) flac24 48khz Set 2... (0)
Date User Comment