Browse Collections Artists Sources   Search Dates

Add Show    List Management    Help


Grateful Dead 06/12/80
Portland Memorial Coliseum, Portland, OR
Comments Add Comment    Source Collectors    Add to Collection    Add to Want List    History
Source # 141798 Other Sources
Entered by Matt Vernon
Checksums ffp , flac-md5
Disc Counts 0 / 0
Media Size
Date Circulated
Date Added
04/29/2018
04/29/2018
Source Summary flac24; Recording Info: SBD > Cassette Master (Maxell UDXL-II); Transfer Info: Cassette Master (Nakamichi CR-7A) > Tascam DA-3000 (DSF 1-bit/5.6 MHz) > KORG AudioGate 4 > Adobe Audition CC2015 > Samplitude Pro X3 Suite > FLAC/24; All Transfers and Mastering by Charlie Miller 
  Archive
Source Information - Download Text | Download Zip
Grateful Dead - June 12, 1980
Memorial Coliseum - Portland, OR

Recording Info:
SBD > Cassette Master (Maxell UDXL-II)

Transfer Info:
Cassette Master (Nakamichi CR-7A) > Tascam DA-3000 (DSF 1-bit/5.6 MHz) >
KORG AudioGate 4 > Adobe Audition CC2015 > Samplitude Pro X3 Suite > FLAC/24
(1 DVD FLAC)

All Transfers and Mastering by Charlie Miller
[email protected]
April 17, 2018

Notes:
-- Last few seconds of Good Lovin' patched with Bob Menke's recording
-- Thanks to Joe B. Jones for the pitch correction settings

Set 1:
01 - Tuning
02 - Alabama Getaway >
03 - Promised Land
04 - Peggy-O >
05 - El Paso
06 - Brown Eyed Women
07 - Cassidy
08 - Far From Me
09 - Althea >
10 - Lost Sailor >
11 - Saint Of Circumstance >
12 - Deal

Set 2:
13 - Drums >
14 - Scarlet Begonias >
15 - Fire On The Mountain
16 - Estimated Prophet >
17 - Drums >
18 - Space >
19 - Not Fade Away >
20 - Black Peter >
21 - Around And Around >
22 - Good Lovin'

Encore:
23 - Johnny B. Goode


SHNTOOL OUTPUT:
    length     expanded size    cdr  WAVE problems  fmt   ratio  filename
     0:35.716      20572304 B   cxx   --   ---xx   flac  0.6354  01 Tuning.flac
     4:44.578     163916822 B   cxx   --   ---xx   flac  0.6939  02 Alabama Getaway.flac
     8:37.262     297942710 B   cxx   --   ---xx   flac  0.6671  03 Promised Land.flac
     6:47.319     234615566 B   cxx   --   ---xx   flac  0.6788  04 Peggy-O.flac
     6:00.074     207402710 B   cxx   --   ---xx   flac  0.6731  05 El Paso.flac
     7:02.199     243186650 B   cxx   --   ---xx   flac  0.6800  06 Brown Eyed Women.flac
     7:56.574     274506464 B   cxx   --   ---xx   flac  0.6775  07 Cassidy.flac
     5:11.685     179530748 B   cxx   --   ---xx   flac  0.6898  08 Far From Me.flac
     8:58.582     310223456 B   cxx   --   ---xx   flac  0.6950  09 Althea.flac
     6:17.615     217506104 B   cxx   --   ---xx   flac  0.6777  10 Lost Sailor.flac
     5:55.856     204972872 B   cxx   --   ---xx   flac  0.6848  11 Saint Of Circumstance.flac
     5:09.535     178292360 B   cxx   --   ---xx   flac  0.6936  12 Deal.flac
     3:02.647     105204884 B   cxx   --   ---xx   flac  0.6634  13 Drums.flac
    11:09.392     385570004 B   cxx   --   ---xx   flac  0.6919  14 Scarlet Begonias.flac
    13:02.568     450759464 B   cxx   --   ---xx   flac  0.6776  15 Fire On The Mountain.flac
    16:50.177     581861810 B   cxx   --   ---xx   flac  0.6889  16 Estimated Prophet.flac
     6:31.235     225351134 B   cxx   --   ---xx   flac  0.6613  17 Drums.flac
     1:35.829      55197422 B   cxx   --   ---xx   flac  0.6805  18 Space.flac
    10:19.995     357116942 B   cxx   --   ---xx   flac  0.6857  19 Not Fade Away.flac
     9:39.157     333594404 B   cxx   --   ---xx   flac  0.6751  20 Black Peter.flac
     3:49.955     132454034 B   cxx   --   ---xx   flac  0.6833  21 Around And Around.flac
     7:21.313     254196578 B   cxx   --   ---xx   flac  0.6909  22 Good Lovin'.flac
     4:33.686     157643132 B   cxx   --   ---xx   flac  0.6905  23 Johnny B Goode.flac
   161:12.947    5571618574 B                            0.6822  (23 files)


Show Checksums
ffp
01 Tuning.flac:7f4171b101da2b107ccf7ca4a63269ca
02 Alabama Getaway.flac:bc7fa03f471f633442bc3fab5db78dbd
03 Promised Land.flac:631bdf2cd837e7d33878ba754bd11eeb
04 Peggy-O.flac:d48b79a82374561048f35724144c2b37
05 El Paso.flac:2a4c81781fe607e1ee27ae98c3b31688
06 Brown Eyed Women.flac:9b7db14f8c11d79fd9100d8871d58a68
07 Cassidy.flac:5cbf650da42a89c8d125ea042927e39a
08 Far From Me.flac:4cb26638d6b300e905dc526b68e18bc7
09 Althea.flac:d7407bf6fa4f43a9ed1af423bb260974
10 Lost Sailor.flac:2910cba41fe3cc8465df65e8af2794ae
11 Saint Of Circumstance.flac:9ea43b0ea576fbb2af60bacd9243666f
12 Deal.flac:0c166422edf97de11305121091ce0608
13 Drums.flac:e78fc8e48e0fe806dea0f54032af5078
14 Scarlet Begonias.flac:d4e1fa3bb15824e2363b84aa0c65b1d1
15 Fire On The Mountain.flac:c89190aa7bffc38fd48740ef7544d1a8
16 Estimated Prophet.flac:d08ddce51053c29f6d229bab87843e94
17 Drums.flac:cbe334f037428b1a70eb61456e7a01cd
18 Space.flac:0bd6ce4da41ee32faceb311c440071b9
19 Not Fade Away.flac:45063dc32a92df79d66d2a878ddcd1a1
20 Black Peter.flac:989426c3c5328ae04a16ef0623422524
21 Around And Around.flac:3b7835b1c7d316d6c0da7567b3ba6a77
22 Good Lovin'.flac:7e0bb09ff2af2ccb93bf679707a38bfa
23 Johnny B Goode.flac:b5dfa7365ad062a1cf3e0f50f899b313
flac-md5
c0516aa7f53bc9ccd8ffbc62e7224d54 *01 Tuning.flac
c9b80bdd12ed67c97e9c11dbef97ba5e *02 Alabama Getaway.flac
b1414352e90779105c56db84208c97be *03 Promised Land.flac
ca2e14698df1afc942f0e7b86946619f *04 Peggy-O.flac
6f41cb80d9ba45a8484409351ab317ad *05 El Paso.flac
855581602a7e7174aa8569b354d7eba1 *06 Brown Eyed Women.flac
f6b2569f9d6ec4cc7ba7493ed10bb1ef *07 Cassidy.flac
be6381cb865618ffb035c99eb559e3ef *08 Far From Me.flac
7ddbe15d118975e65962c3660865bf0f *09 Althea.flac
e7532afb70994f71ca9745164eb959b6 *10 Lost Sailor.flac
097373e0ff6ed47324707c51ab1d69b3 *11 Saint Of Circumstance.flac
5a3cecfe713c57481bf5d87be8f80e4e *12 Deal.flac
4a24bb08e9a6028e4b73e83791018858 *13 Drums.flac
aa9ad8e2e83b541c9588ef4fac0500e5 *14 Scarlet Begonias.flac
bbbf48c41bd8b82b451cfee09e513ccc *15 Fire On The Mountain.flac
81b91dd76f9e1cc997698a6786a0e242 *16 Estimated Prophet.flac
7fb1b8212f4a214f60d6635581c5b765 *17 Drums.flac
6b106f216ec9d47690533a62f86c4d30 *18 Space.flac
c62bef6de7a89131c0f52ef0338082ef *19 Not Fade Away.flac
4953f19eaa31c1d801b85f9a0a8bea1e *20 Black Peter.flac
5d3c5aec89799a1e304e1dbee7c6290e *21 Around And Around.flac
814f4cbbe361d4d8eb058ce19a3f2ac9 *22 Good Lovin'.flac
6ce90e75620695649624dbef80bfc1b5 *23 Johnny B Goode.flac

Comments
Add Comment
Other Sources (comments)
set 2; Master Audience... (0) AUD>MC>DAT>CDR; via Paul B;... (1) flac16; Sony ECM-990... (0) flac16; Analog... (0) flac16; Recording... (0)
Date User Comment