Browse Collections Artists Sources   Search Dates

Add Show    List Management    Help


Grateful Dead 03/30/89
Greensboro Coliseum, Greensboro, NC
Comments Add Comment    Source Collectors    Add to Collection    Add to Want List    History
Source # 141801 Other Sources
Entered by Matt Vernon
Checksums ffp , flac-md5
Disc Counts 0 / 0
Media Size
Date Circulated
Date Added
04/30/2018
04/30/2018
Source Summary flac16; Source Info: Ted Mattes' Master Audience PCM (Nakamichi DMP-100 deck, Sony ESX-HiFi/L750 tape); Schoeps CMC4/MK4 mics, ortf (OTS); Transfer Info: Master PCM (Sony SL-10)> Sony PCM 601ESD > Behringer Ultramatch Pro > Tascam DA-3000 (16 bit/44.1k)> Samplitude > Adobe Audition 3.0 > TLH flac16 
  Archive
Source Information - Download Text | Download Zip
Grateful Dead
Greensboro Coliseum
Greensboro, NC
Thursday March 30th, 1989

Source Info:
Ted Mattes' Master Audience PCM (Nakamichi DMP-100 deck, Sony ESX-HiFi/L750 tape); Schoeps CMC4/MK4 mics, ortf (OTS)

Transfer Info:
Master PCM (Sony SL-10)> Sony PCM 601ESD > Behringer Ultramatch Pro > Tascam DA-3000 (16 bit/44.1k)> Samplitude > Adobe Audition 3.0 > TLH flac16

Notes:
- Thanks to Ted Mattes for the PCM master
- Thanks to Charlie Miller for the transfer and coordinating this effort
- Thanks to Charlie Miller for the shnid81531 ultramatrix source which supplies 3 patches in "China Cat Sunflower"
- Other One themed "Space"

Mastered by Scott Clugston
April 16, 2018

Set One:
t01 - Crowd
t02 - Bertha >
t03 - Jack Straw
t04 - Row Jimmy
t05 - Blow Away
t06 - When I Paint My Masterpiece
t07 - Bird Song >
t08 - Promised Land

Set 2:
t09 - Crowd
t10 - China Cat Sunflower >
t11 - I Know You Rider >
t12 - Looks Like Rain >
t13 - He's Gone >
t14 - Drums >
t15 - Space >
t16 - The Other One >
t17 - Stella Blue >
t18 - Sugar Magnolia
t19 - Encore Break
t20 - Knockin' On Heaven's Door



    length     expanded size    cdr  WAVE problems  fmt   ratio  filename
     0:40.41        7152476 B   ---   --   ---xx   flac  0.5083  gd89-03-30 t01 Crowd.flac
     6:42.43       71013980 B   ---   --   ---xx   flac  0.5922  gd89-03-30 t02 Bertha.flac
     8:14.27       87205148 B   ---   --   ---xx   flac  0.5529  gd89-03-30 t03 Jack Straw.flac
    13:10.10      139379564 B   ---   --   ---xx   flac  0.5590  gd89-03-30 t04 Row Jimmy.flac
     8:17.29       87739052 B   ---   --   ---xx   flac  0.5972  gd89-03-30 t05 Blow Away.flac
     6:23.70       67725884 B   ---   --   ---xx   flac  0.5699  gd89-03-30 t06 When I Paint My Masterpiece.flac
    12:02.49      127476092 B   ---   --   ---xx   flac  0.6023  gd89-03-30 t07 Bird Song.flac
     4:37.65       49015724 B   ---   --   ---xx   flac  0.6227  gd89-03-30 t08 Promised Land.flac
     0:29.67        5273228 B   ---   --   ---xx   flac  0.4440  gd89-03-30 t09 Crowd.flac
     6:13.74       65971292 B   ---   --   ---xx   flac  0.6282  gd89-03-30 t10 China Cat Sunflower.flac
     4:45.57       50408108 B   ---   --   ---xx   flac  0.6090  gd89-03-30 t11 I Know You Rider.flac
     8:39.41       91648076 B   ---   --   ---xx   flac  0.5633  gd89-03-30 t12 Looks Like Rain.flac
    15:31.43      164329580 B   ---   --   ---xx   flac  0.5932  gd89-03-30 t13 He's Gone.flac
     9:24.09       99510812 B   ---   --   ---xx   flac  0.5149  gd89-03-30 t14 Drums.flac
    10:17.06      108852956 B   ---   --   ---xx   flac  0.4584  gd89-03-30 t15 Space.flac
     7:42.34       81576812 B   ---   --   ---xx   flac  0.6037  gd89-03-30 t16 The Other One.flac
     8:56.57       94684508 B   ---   --   ---xx   flac  0.5404  gd89-03-30 t17 Stella Blue.flac
     8:31.37       90227468 B   ---   --   ---xx   flac  0.6288  gd89-03-30 t18 Sugar Magnolia.flac
     2:13.04       23470652 B   ---   --   ---xx   flac  0.5564  gd89-03-30 t19 Encore Break.flac
     6:59.69       74073932 B   ---   --   ---xx   flac  0.5650  gd89-03-30 t20 Knockin' On Heaven's Door.flac
   149:55.07     1586735344 B                            0.5715  (20 files)


Show Checksums
ffp
gd89-03-30 t01 Crowd.flac:2a25ad0b15f6f800bffd95cd4c922572
gd89-03-30 t02 Bertha.flac:d3a5ada2a3da37679219e01ae618b579
gd89-03-30 t03 Jack Straw.flac:89e7fc619c3d9b836eede8d9105a2f59
gd89-03-30 t04 Row Jimmy.flac:b2050e2b260b633408a31b1cc5df22c4
gd89-03-30 t05 Blow Away.flac:27e8ca161a5b90836f0bd3cc93828f5f
gd89-03-30 t06 When I Paint My Masterpiece.flac:ecc8e6135c9aa5e71c5ccc67c1799803
gd89-03-30 t07 Bird Song.flac:ccb793345e8d1efe02867dcd50b316ff
gd89-03-30 t08 Promised Land.flac:7fef9c893afa15fd8884ddeb8d89e7d8
gd89-03-30 t09 Crowd.flac:31699f3598c48c053029de49025ab3a2
gd89-03-30 t10 China Cat Sunflower.flac:7a437afae6519363aec7e073b9017a7b
gd89-03-30 t11 I Know You Rider.flac:c62f36fc0f0116a9362ee7333387c6d1
gd89-03-30 t12 Looks Like Rain.flac:962bcbe5056bd078da734c4751cbb205
gd89-03-30 t13 He's Gone.flac:c35e58485f4c81531dcde2abc55d06b9
gd89-03-30 t14 Drums.flac:022dacc8a01d273b6a5487ad030879c5
gd89-03-30 t15 Space.flac:bfd2a24d3515429d099b86b5799ca7f2
gd89-03-30 t16 The Other One.flac:54f8f9eb9f50c2aa52dd6bb58913bfa0
gd89-03-30 t17 Stella Blue.flac:582635d6d90cf35477491ea5ce22ccfd
gd89-03-30 t18 Sugar Magnolia.flac:f96b9972a5a1686e28dc4f4a845f929b
gd89-03-30 t19 Encore Break.flac:b432bcd4c003778cb890c15ac74ed41c
gd89-03-30 t20 Knockin' On Heaven's Door.flac:1192e12675c446f40678607fa3b9770c
flac-md5
471af4f3ce657a11ded8ed27bbf4fdb6 *gd89-03-30 t01 Crowd.flac
4eaec1c5148a361c21a1437c8dca4433 *gd89-03-30 t02 Bertha.flac
4fceff541596a3b65f570511669b5b5e *gd89-03-30 t03 Jack Straw.flac
d81913a9ac03718552adf38e445715de *gd89-03-30 t04 Row Jimmy.flac
1a6999e688e3d6bc933948e38a482cf3 *gd89-03-30 t05 Blow Away.flac
247a6092f3282c8f75400900f12ab76b *gd89-03-30 t06 When I Paint My Masterpiece.flac
5a0e7d5b31380b58b5b48d66a7fa1d65 *gd89-03-30 t07 Bird Song.flac
368ae5282745ba7592215ee17f24870e *gd89-03-30 t08 Promised Land.flac
a8226b911467b92857d823d89d19bf81 *gd89-03-30 t09 Crowd.flac
a0f2e40d3ef22f0b03db74f6a7029c61 *gd89-03-30 t10 China Cat Sunflower.flac
1677d9d1fe82a7ea09627546b506cac1 *gd89-03-30 t11 I Know You Rider.flac
9d40ae3d0bfdf8abb714b08a1dd1afe2 *gd89-03-30 t12 Looks Like Rain.flac
5d4ce87f790f6c0a3b525706b7a15a71 *gd89-03-30 t13 He's Gone.flac
072ecfba77da2555aff8bb4398ef7b78 *gd89-03-30 t14 Drums.flac
33fffdf4c909bc72530c6185f96298a7 *gd89-03-30 t15 Space.flac
c3ae70fb905bd55fb56fe10aa0d91d9d *gd89-03-30 t16 The Other One.flac
bb8b4e32f23a8a0f927037abde1095c8 *gd89-03-30 t17 Stella Blue.flac
04847b0c8552d57784532817b5f7a4bf *gd89-03-30 t18 Sugar Magnolia.flac
efa4f144ef473cd6a52a5408cd4e4d0c *gd89-03-30 t19 Encore Break.flac
01b4a20d88383ee78361570bd3865e25 *gd89-03-30 t20 Knockin' On Heaven's Door.flac

Comments
Add Comment
Other Sources (comments)
Mark Horvath FOB Senn.... (0) flac16; Set 1 only:... (1) flac16; Recording... (0) flac24; Master... (0) flac16; Master... (0) flac16; Source: AKG... (0) flac16/48kHz;... (0)
Date User Comment