Browse Collections Artists Sources   Search Dates

Add Show    List Management    Help


Grateful Dead 04/05/89
Crisler Arena, Ann Arbor, MI
Comments Add Comment    Source Collectors    Add to Collection    Add to Want List    History
Source # 141802 Other Sources
Entered by Matt Vernon
Checksums ffp , flac-md5
Disc Counts 0 / 0
Media Size
Date Circulated
Date Added
04/30/2018
04/30/2018
Source Summary flac16; Source Info: Ted Mattes' Master Audience PCM (Nakamichi DMP-100 deck, Sony ESX-HiFi/L750 tape); Schoeps CMC4/MK4 mics, ortf (OTS); Transfer Info: Master PCM (Sony SL-10)> Sony PCM 601ESD > Behringer Ultramatch Pro > Tascam DA-3000 (16 bit/44.1k)> Samplitude > Adobe Audition 3.0 > TLH flac16 
  Archive
Source Information - Download Text | Download Zip
Grateful Dead
Crisler Arena
Ann Arbor, MI
Wednesday April 5th 1989

Source Info:
Ted Mattes' Master Audience PCM (Nakamichi DMP-100 deck, Sony ESX-HiFi/L750 tape); Schoeps CMC4/MK4 mics, ortf (OTS)

Transfer Info:
Master PCM (Sony SL-10)> Sony PCM 601ESD > Behringer Ultramatch Pro > Tascam DA-3000 (16 bit/44.1k)> Samplitude > Adobe Audition 3.0 > TLH flac16

Notes:
- Thanks to Ted Mattes for the PCM master
- Thanks to Charlie Miller for the transfer and coordinating this effort

Mastered by Scott Clugston
April 23, 2018

Set One:
t01 - Crowd
t02 - Feel Like A Stranger >
t03 - Franklin's Tower
t04 - New Minglewood Blues
t05 - Candyman
t06 - Stuck Inside of Mobile With The Memphis Blues
t07 - Far From Me
t08 - Dupree's Diamond Blues
t09 - Let It Grow >
t10 - US Blues

Set Two:

t11 - Crowd
t12 - Samson & Delilah
t13 - Cumberland Blues
t14 - Man Smart, Woman Smarter
t15 - Terrapin Station >
t16 - Drums >
t17 - Space >
t18 - China Doll >
t19 - Throwing Stones >
t20 - Not Fade Away
t21 - Not Fade Away Chant
t22 - The Mighty Quinn



    length     expanded size    cdr  WAVE problems  fmt   ratio  filename
     3:55.59       41592812 B   ---   --   ---xx   flac  0.4057  gd89-04-05 t01 Crowd.flac
     8:13.07       86981708 B   ---   --   ---xx   flac  0.5652  gd89-04-05 t02 Feel Like A Stranger.flac
    10:18.59      109154012 B   ---   --   ---xx   flac  0.5504  gd89-04-05 t03 Franklin's Tower.flac
     8:20.40       88294124 B   ---   --   ---xx   flac  0.5563  gd89-04-05 t04 New Minglewood Blues.flac
     7:32.02       79737548 B   ---   --   ---xx   flac  0.5072  gd89-04-05 t05 Candyman.flac
     9:29.03      100378700 B   ---   --   ---xx   flac  0.5302  gd89-04-05 t06 Memphis Blues Again.flac
     5:38.51       59743196 B   ---   --   ---xx   flac  0.5327  gd89-04-05 t07 Far From Me.flac
     5:49.72       61732988 B   ---   --   ---xx   flac  0.5350  gd89-04-05 t08 Dupree's Diamond Blues.flac
    11:38.21      123176636 B   ---   --   ---xx   flac  0.5369  gd89-04-05 t09 Let It Grow.flac
     5:35.59       59232812 B   ---   --   ---xx   flac  0.5765  gd89-04-05 t10 US Blues.flac
     2:56.19       31091132 B   ---   --   ---xx   flac  0.4622  gd89-04-05 t11 Crowd.flac
     6:52.03       72683900 B   ---   --   ---xx   flac  0.5774  gd89-04-05 t12 Samson & Delilah.flac
     5:59.65       63480524 B   ---   --   ---xx   flac  0.5634  gd89-04-05 t13 Cumberland Blues.flac
     6:47.27       71858348 B   ---   --   ---xx   flac  0.5844  gd89-04-05 t14 Man Smart (Woman Smarter).flac
    12:34.41      133102076 B   ---   --   ---xx   flac  0.5402  gd89-04-05 t15 Terrapin Station.flac
    10:18.35      109097564 B   ---   --   ---xx   flac  0.4537  gd89-04-05 t16 Drums.flac
     7:56.71       84133436 B   ---   --   ---xx   flac  0.3874  gd89-04-05 t17 Space.flac
     7:04.36       74878316 B   ---   --   ---xx   flac  0.4748  gd89-04-05 t18 China Doll.flac
     9:42.43      102765980 B   ---   --   ---xx   flac  0.5549  gd89-04-05 t19 Throwing Stones.flac
     9:51.57      104386508 B   ---   --   ---xx   flac  0.5555  gd89-04-05 t20 Not Fade Away.flac
     3:39.43       38732780 B   ---   --   ---xx   flac  0.5407  gd89-04-05 t21 Not Fade Away Chant.flac
     5:51.66       62071676 B   ---   --   ---xx   flac  0.5663  gd89-04-05 t22 The Mighty Quinn.flac
   166:07.54     1758306776 B                            0.5282  (22 files)


Show Checksums
ffp
gd89-04-05 t01 Crowd.flac:0667fd20837b1333222d291b62faabb4
gd89-04-05 t02 Feel Like A Stranger.flac:5cd50076040899befac2ee3c6def7182
gd89-04-05 t03 Franklin's Tower.flac:cd305f67dcd73caadd4c4b79ea9321bf
gd89-04-05 t04 New Minglewood Blues.flac:5d7d28b30f0ff7ef867b88eedcd1344f
gd89-04-05 t05 Candyman.flac:99c660c1c0daa79882eeb3455401ce3a
gd89-04-05 t06 Memphis Blues Again.flac:02cfe3c8b901bc7327eb2711207f2d0a
gd89-04-05 t07 Far From Me.flac:27302bfa8b6801c4df261e3eaca48409
gd89-04-05 t08 Dupree's Diamond Blues.flac:9bcc9b2c2d8ef9adfd6d625d447a5550
gd89-04-05 t09 Let It Grow.flac:9ec1d6003697cdb5d778c24e44d5dfd7
gd89-04-05 t10 US Blues.flac:f0fb7a3a88e7fce51e9633fd6460fc0e
gd89-04-05 t11 Crowd.flac:b724e9fa9ba924fc003e74a19821b9b9
gd89-04-05 t12 Samson & Delilah.flac:ca9dd8d8b34d6b2f5c341bc90b871b64
gd89-04-05 t13 Cumberland Blues.flac:e4114289c196247a6c13a121d9e14fc2
gd89-04-05 t14 Man Smart (Woman Smarter).flac:95ffa81b2c5910d452181f10fc41ddae
gd89-04-05 t15 Terrapin Station.flac:924aa062581aac7d42ef076c9889adde
gd89-04-05 t16 Drums.flac:9b872b2da9e7876cd902a023260544f5
gd89-04-05 t17 Space.flac:f25a9424e7ac3badadd2e0c2f6f4abf8
gd89-04-05 t18 China Doll.flac:37a7e420b5ffaf01b5d8a05e058c0fb4
gd89-04-05 t19 Throwing Stones.flac:b82f5000534243025455f95004422be8
gd89-04-05 t20 Not Fade Away.flac:76048233d79fb095fce747fe48eebb17
gd89-04-05 t21 Not Fade Away Chant.flac:2a4837ea2271cdc40c6eda26be5da184
gd89-04-05 t22 The Mighty Quinn.flac:054f7014f1acef504a685a73d7e4f851
flac-md5
e3e55a588fcbb532b7ecc79fe0dc3317 *gd89-04-05 t01 Crowd.flac
46c88aa011943a9df6744b25a890c64b *gd89-04-05 t02 Feel Like A Stranger.flac
072429e28a983a5e9cbf45efcb3d4a2d *gd89-04-05 t03 Franklin's Tower.flac
e7276aad4a2170b39254870dbdc41356 *gd89-04-05 t04 New Minglewood Blues.flac
2020fbd9d17c701b13472d7ff66c591c *gd89-04-05 t05 Candyman.flac
0d927b93bc0683775f7bf3512b81ebdf *gd89-04-05 t06 Memphis Blues Again.flac
6e5cf72ff8f43850bafc4fe485157fa2 *gd89-04-05 t07 Far From Me.flac
bfb3068c4edb66f8bc41dfa91f4e801e *gd89-04-05 t08 Dupree's Diamond Blues.flac
8b559e12c730280598d8d14976b10fd1 *gd89-04-05 t09 Let It Grow.flac
0e70ddcc9e73e76adb625b1f4d45eadf *gd89-04-05 t10 US Blues.flac
ad55107c72788b6f75e451f817a0907f *gd89-04-05 t11 Crowd.flac
1dd7340be8b33b9c9cfe053d6068a140 *gd89-04-05 t12 Samson & Delilah.flac
202b5430e8d2a57a1d0f60b1e3e5818a *gd89-04-05 t13 Cumberland Blues.flac
8a613baf79d804ecc2420f367c4e511a *gd89-04-05 t14 Man Smart (Woman Smarter).flac
abe7da1dbe339b23baa85c508c26435b *gd89-04-05 t15 Terrapin Station.flac
19edae434ddcd9427d99c8fc75e50ef0 *gd89-04-05 t16 Drums.flac
c5fae48cfb95c99d08332fa307cd21ca *gd89-04-05 t17 Space.flac
a0110b5cb9f3011f47ff13565c706f41 *gd89-04-05 t18 China Doll.flac
29503538aa28bb910841869b2e131a9f *gd89-04-05 t19 Throwing Stones.flac
7927f7d3c1e1f971a1ba2924ba6f3bac *gd89-04-05 t20 Not Fade Away.flac
7e4945003850c018fa231fcccbef5de0 *gd89-04-05 t21 Not Fade Away Chant.flac
5cfd86237bf66b33fc823956fc872efd *gd89-04-05 t22 The Mighty Quinn.flac

Comments
Add Comment
Other Sources (comments)
Healy Ultra Mix - sbd+aud>... (2) Healy Ultra Mix Cassette... (0) flac16; Recording... (0) flac16; source: aud... (0) flac16; Taper: Greg... (0) flac16; Recorded &... (0)
Date User Comment