Browse Collections Artists Sources   Search Dates

Add Show    List Management    Help


Grateful Dead 06/12/80
Portland Memorial Coliseum, Portland, OR
Comments Add Comment    Source Collectors    Add to Collection    Add to Want List    History
Source # 141805 Other Sources
Entered by Matt Vernon
Checksums ffp , flac-md5
Disc Counts 0 / 0
Media Size
Date Circulated
Date Added
04/30/2018
04/30/2018
Source Summary flac16; Recording Info: SBD > Cassette Master (Maxell UDXL-II); Transfer Info: Cassette Master (Nakamichi CR-7A) > Tascam DA-3000 (DSF 1-bit/5.6 MHz) > KORG AudioGate 4 > Adobe Audition CC2015 > Samplitude Pro X3 Suite > FLAC/24; All Transfers and Mastering by Charlie Miller; This is a 16/44 fileset. 24-bit > 16-bit via dBpoweramp 
  Archive
Source Information - Download Text | Download Zip
Grateful Dead - June 12, 1980
Memorial Coliseum - Portland, OR

This is a 16/44 fileset. 24-bit > 16-bit via dBpoweramp

Recording Info:
SBD > Cassette Master (Maxell UDXL-II)

Transfer Info:
Cassette Master (Nakamichi CR-7A) > Tascam DA-3000 (DSF 1-bit/5.6 MHz) >
KORG AudioGate 4 > Adobe Audition CC2015 > Samplitude Pro X3 Suite > FLAC/24
(1 DVD FLAC)

All Transfers and Mastering by Charlie Miller
[email protected]
April 17, 2018

Notes:
-- Last few seconds of Good Lovin' patched with Bob Menke's recording
-- Thanks to Joe B. Jones for the pitch correction settings

Set 1:
01 - Tuning
02 - Alabama Getaway >
03 - Promised Land
04 - Peggy-O >
05 - El Paso
06 - Brown Eyed Women
07 - Cassidy
08 - Far From Me
09 - Althea >
10 - Lost Sailor >
11 - Saint Of Circumstance >
12 - Deal

Set 2:
13 - Drums >
14 - Scarlet Begonias >
15 - Fire On The Mountain
16 - Estimated Prophet >
17 - Drums >
18 - Space >
19 - Not Fade Away >
20 - Black Peter >
21 - Around And Around >
22 - Good Lovin'

Encore:
23 - Johnny B. Goode


    length     expanded size    cdr  WAVE problems  fmt   ratio  filename
     0:35.53        6298700 B   ---   --   ---xx   flac  0.4798  01 Tuning.flac
     4:44.44       50201132 B   ---   --   ---xx   flac  0.6627  02 Alabama Getaway.flac
     8:37.19       91243532 B   ---   --   ---xx   flac  0.5793  03 Promised Land.flac
     6:47.24       71851292 B   ---   --   ---xx   flac  0.6047  04 Peggy-O.flac
     6:00.06       63518156 B   ---   --   ---xx   flac  0.5839  05 El Paso.flac
     7:02.14       74473772 B   ---   --   ---xx   flac  0.5820  06 Brown Eyed Women.flac
     7:56.44       84069932 B   ---   --   ---xx   flac  0.5612  07 Cassidy.flac
     5:11.51       54980396 B   ---   --   ---xx   flac  0.5862  08 Far From Me.flac
     8:58.44       95006732 B   ---   --   ---xx   flac  0.6059  09 Althea.flac
     6:17.46       66611036 B   ---   --   ---xx   flac  0.5810  10 Lost Sailor.flac
     5:55.64       62772572 B   ---   --   ---xx   flac  0.6171  11 Saint Of Circumstance.flac
     5:09.40       54601724 B   ---   --   ---xx   flac  0.6340  12 Deal.flac
     3:02.49       32220092 B   ---   --   ---xx   flac  0.5100  13 Drums.flac
    11:09.29      118079852 B   ---   --   ---xx   flac  0.6009  14 Scarlet Begonias.flac
    13:02.43      138045980 B   ---   --   ---xx   flac  0.5768  15 Fire On The Mountain.flac
    16:50.13      178194620 B   ---   --   ---xx   flac  0.5954  16 Estimated Prophet.flac
     6:31.17       69012428 B   ---   --   ---xx   flac  0.5396  17 Drums.flac
     1:35.63       16906220 B   ---   --   ---xx   flac  0.5617  18 Space.flac
    10:19.74      109365692 B   ---   --   ---xx   flac  0.5805  19 Not Fade Away.flac
     9:39.12      102163868 B   ---   --   ---xx   flac  0.5687  20 Black Peter.flac
     3:49.72       40564988 B   ---   --   ---xx   flac  0.5935  21 Around And Around.flac
     7:21.23       77846540 B   ---   --   ---xx   flac  0.6116  22 Good Lovin'.flac
     4:33.53       48281900 B   ---   --   ---xx   flac  0.6257  23 Johnny B Goode.flac
   161:12.72     1706311156 B                            0.5892  (23 files)


Show Checksums
ffp
01 Tuning.flac:9bf3aeb0f643fceea27771357b786040
02 Alabama Getaway.flac:63091f530a21569e9f319d5b2385c44e
03 Promised Land.flac:876138893cd9a56db43ea0f482169c78
04 Peggy-O.flac:697897d5ad7532bdccaa62cb1090a631
05 El Paso.flac:85bb6e0a19801007839b3f23c85dd3f8
06 Brown Eyed Women.flac:7678838cba4eab6bedb6fd94e1d52b77
07 Cassidy.flac:f9abe1b14e80f578f2269fc4609d734f
08 Far From Me.flac:b04eacd0660f9fafe6993a09e7f4be71
09 Althea.flac:cfa92f7efaf147f44e6d6f730828a743
10 Lost Sailor.flac:16e6c50815c38747f600d15ae26bb8de
11 Saint Of Circumstance.flac:3ea14cd6e6e4fd51ba61ed43b351f04e
12 Deal.flac:9bc5d9bf53647b4ad88622f501a61c43
13 Drums.flac:8731883c409ce9e036bfe3799920349c
14 Scarlet Begonias.flac:b0132286749f4846386b07d15197f18c
15 Fire On The Mountain.flac:fbb2fea36a11ee104036bfb4dbf31009
16 Estimated Prophet.flac:1a07a19ab017e116835b85099037f7ba
17 Drums.flac:c6a776d6533f5bbcd0293666d5a980d0
18 Space.flac:e091edbb4138b7e1dd5cf74db442d72e
19 Not Fade Away.flac:2a1eaebcf1c8fbb4ce5b61a203876dd4
20 Black Peter.flac:7fe251f6eebcd465f8b1b2edc4d1f45f
21 Around And Around.flac:960c304e178a80c8b6294f5402bd1d92
22 Good Lovin'.flac:90c19d3827590e31696012247329b675
23 Johnny B Goode.flac:cfefc2e71bab30804f87e1b36b3e4855
flac-md5
ae286f7824f42c98e31a4617eeb72b1a *01 Tuning.flac
58f2486ebbb94a6300c1d19efd8585dd *02 Alabama Getaway.flac
c989d4795ab5531c9e589ba8703a161b *03 Promised Land.flac
229f66192c6e9625935fee5bce842b7c *04 Peggy-O.flac
1389b17e43f1a88fc42ed2477305daff *05 El Paso.flac
ce1ecaea09cb1236deb67371496c7cd6 *06 Brown Eyed Women.flac
144ea550ad4c700f8bd87d5d23b8162b *07 Cassidy.flac
857e0764aef9f2a9f965ac83a323c46b *08 Far From Me.flac
73ae67d63939ef2c35ab6e070e5a7b0d *09 Althea.flac
a1fad1eb1b683ef6bbab3b28a7a5c500 *10 Lost Sailor.flac
d23e54031394a0e5e3b2c848b5f99651 *11 Saint Of Circumstance.flac
660e925ca3cd14469ed1bf7db4e855da *12 Deal.flac
504789a54acc77af6562ca0d2c4a00f8 *13 Drums.flac
fdc314fe498e60a69de11383dd163263 *14 Scarlet Begonias.flac
6770bd06f926e701da7daad65ae2c0df *15 Fire On The Mountain.flac
9ddaee9e1d9bead4b527785581a33401 *16 Estimated Prophet.flac
96e2089bb18f0a90842a02fd66c81a5c *17 Drums.flac
765f13a7e38068c1c1c3e72852062813 *18 Space.flac
90cd60e6b48352fb2b47f6147c300a8c *19 Not Fade Away.flac
1e82d0b1122422f89694c6efeff6f242 *20 Black Peter.flac
5c4def49d153c059fd3bb0b9df93f325 *21 Around And Around.flac
be8c2927edb20c81320c2de9816e207a *22 Good Lovin'.flac
eb0899f85dc5ee588c06ad8be22c9ec8 *23 Johnny B Goode.flac

Comments
Add Comment
Other Sources (comments)
set 2; Master Audience... (0) AUD>MC>DAT>CDR; via Paul B;... (1) flac16; Sony ECM-990... (0) flac16; Analog... (0) flac24; Recording... (0)
Date User Comment