Browse Collections Artists Sources   Search Dates

Add Show    List Management    Help


Grateful Dead 04/11/89
Rosemont Horizon, Rosemont, IL
Comments Add Comment    Source Collectors    Add to Collection    Add to Want List    History
Source # 141850 Other Sources
Entered by Matt Vernon
Checksums ffp , flac-md5
Disc Counts 0 / 0
Media Size
Date Circulated
Date Added
05/02/2018
05/02/2018
Source Summary flac16; Recording Info: Ted Mattes' Master Audience PCM (Nakamichi DMP-100 deck, Sony ESX-HiFi/L750 tape); Schoeps CMC4/MK4 mics, ortf (OTS); Transfer Info: Master PCM (Sony SL-10)> Sony PCM 601ESD > Behringer Ultramatch Pro > Tascam DA-3000 (16 bit/44.1k)> Samplitude > Adobe Audition 3.0 > TLH flac16 
  Archive
Source Information - Download Text | Download Zip
Grateful Dead
Rosemont Horizon Arena
Rosemont, IL
Tuesday April 11th, 1989

Recording Info:
Ted Mattes' Master Audience PCM (Nakamichi DMP-100 deck, Sony ESX-HiFi/L750 tape); Schoeps CMC4/MK4 mics, ortf (OTS)

Transfer Info:
Master PCM (Sony SL-10)> Sony PCM 601ESD > Behringer Ultramatch Pro > Tascam DA-3000 (16 bit/44.1k)> Samplitude > Adobe Audition 3.0 > TLH flac16

Notes:
- Thanks to Ted Mattes for the PCM master
- Thanks to Charlie Miller for the transfer and coordinating this effort
- Thanks to Mr. Darby and Keo for the shnid120303 AKG C451E/CK1 source which supplies a 0:04 patch in "Samson & Delilah", as well as 0:02.6, 0:01.5 and 0:01.9 patches in "Crazy Fingers"

Mastered by Scott Clugston
April 24, 2018

Set 1:
t01 - Crowd
t02 - Shakedown Street
t03 - Little Red Rooster
t04 - Friend Of The Devil
t05 - Victim Or The Crime
t06 - Built To Last
t07 - We Can Run
t08 - Stuck Inside Of Mobile With The Memphis Blues Again >
t09 - Deal

Set 2:
t10 - Crowd
t11 - Samson And Delilah >
t12 - Crazy Fingers >
t13 - Playing In The Band >
t14 - Terrapin Station >
t15 - Drums >
t16 - Space >
t17 - Gimme Some Lovin' >
t18 - Standing On The Moon >
t19 - Throwing Stones >
t20 - Not Fade Away
t21 - Not Fade Away Chant
t22 - US Blues



    length     expanded size    cdr  WAVE problems  fmt   ratio  filename
     3:08.72       33332588 B   ---   --   ---xx   flac  0.5275  gd89-04-11 t01 Crowd.flac
    13:57.53      147771500 B   ---   --   ---xx   flac  0.5520  gd89-04-11 t02 Shakedown Street.flac
    10:10.08      107622860 B   ---   --   ---xx   flac  0.5502  gd89-04-11 t03 Little Red Rooster.flac
     9:32.65      101053724 B   ---   --   ---xx   flac  0.5631  gd89-04-11 t04 Friend Of The Devil.flac
     8:07.47       86017388 B   ---   --   ---xx   flac  0.5522  gd89-04-11 t05 Victim Or The Crime.flac
     5:56.68       62958380 B   ---   --   ---xx   flac  0.5486  gd89-04-11 t06 Built To Last.flac
     4:32.22       48032588 B   ---   --   ---xx   flac  0.5557  gd89-04-11 t07 We Can Run.flac
     9:24.59       99628412 B   ---   --   ---xx   flac  0.5583  gd89-04-11 t08 Memphis Blues Again.flac
     9:17.74       98428892 B   ---   --   ---xx   flac  0.5851  gd89-04-11 t09 Deal.flac
     4:41.63       49716620 B   ---   --   ---xx   flac  0.4784  gd89-04-11 t10 Crowd.flac
     7:06.06       75160556 B   ---   --   ---xx   flac  0.5912  gd89-04-11 t11 Samson & Delilah.flac
     7:55.38       83879420 B   ---   --   ---xx   flac  0.5514  gd89-04-11 t12 Crazy Fingers.flac
     8:53.35       94103564 B   ---   --   ---xx   flac  0.5482  gd89-04-11 t13 Playin' In The Band.flac
    13:02.72      138114188 B   ---   --   ---xx   flac  0.5641  gd89-04-11 t14 Terrapin Station.flac
     7:58.70       84483884 B   ---   --   ---xx   flac  0.5157  gd89-04-11 t15 Drums.flac
     8:23.28       88795100 B   ---   --   ---xx   flac  0.4587  gd89-04-11 t16 Space.flac
     5:28.40       57953324 B   ---   --   ---xx   flac  0.5706  gd89-04-11 t17 Gimme Some Lovin'.flac
     6:49.60       72288764 B   ---   --   ---xx   flac  0.5152  gd89-04-11 t18 Standing On The Moon.flac
     9:49.24      103956092 B   ---   --   ---xx   flac  0.5699  gd89-04-11 t19 Throwing Stones.flac
     7:18.34       77343212 B   ---   --   ---xx   flac  0.5785  gd89-04-11 t20 Not Fade Away.flac
     3:37.10       38302364 B   ---   --   ---xx   flac  0.5431  gd89-04-11 t21 Not Fade Away Chant.flac
     6:02.59       63995612 B   ---   --   ---xx   flac  0.5775  gd89-04-11 t22 US Blues.flac
   171:17.32     1812939032 B                            0.5502  (22 files)


Show Checksums
ffp
gd89-04-11 t01 Crowd.flac:e7a4160713392182f70b8347b0b0f52c
gd89-04-11 t02 Shakedown Street.flac:3a3d2fb5200a4debc3e3a6a5102fb6f7
gd89-04-11 t03 Little Red Rooster.flac:e2549cc38a4930c8fb8eceb73fca523b
gd89-04-11 t04 Friend Of The Devil.flac:a1962143f0a99e5e49314f10fe1d2a4e
gd89-04-11 t05 Victim Or The Crime.flac:f7966873b73f1011b6736eff667ac4fb
gd89-04-11 t06 Built To Last.flac:3c828efc96827e4ab6476ed210d50ac5
gd89-04-11 t07 We Can Run.flac:e7db8682cd4365b72a6c200a53c9dc79
gd89-04-11 t08 Memphis Blues Again.flac:44ce760ca66d5fa82f74e3a060835a17
gd89-04-11 t09 Deal.flac:6bc8f8103b2940993e6cd3800b5197ed
gd89-04-11 t10 Crowd.flac:dbac50f0ed2789efcc00441cc28b0f0b
gd89-04-11 t11 Samson & Delilah.flac:6637b9cabacdb6ee8f881d6be946e30d
gd89-04-11 t12 Crazy Fingers.flac:6cac70c954ad3e2f4f123299de376897
gd89-04-11 t13 Playin' In The Band.flac:22bc5b30769f44198fb033a96d1306f7
gd89-04-11 t14 Terrapin Station.flac:63f7bbc264bcddb716037d0b1103b52a
gd89-04-11 t15 Drums.flac:0e51a7c9a1012f3da7e4bbe131482d25
gd89-04-11 t16 Space.flac:9d87a4df679924a4527a49fa5f52638c
gd89-04-11 t17 Gimme Some Lovin'.flac:fcd3426b5efd0e8080938cd2bb43189f
gd89-04-11 t18 Standing On The Moon.flac:4a59bf3c93318228ab23f919e11d033f
gd89-04-11 t19 Throwing Stones.flac:8b3e4ea5af0c829944487936e014008e
gd89-04-11 t20 Not Fade Away.flac:5ba4b375467defc4327fc390e4745d62
gd89-04-11 t21 Not Fade Away Chant.flac:253a06ee128a7ad21a9584509faab9b2
gd89-04-11 t22 US Blues.flac:c70da8f268a735ce55053aea62a06c30
flac-md5
7d147a15e56d792f07c011f2f574066f *gd89-04-11 t01 Crowd.flac
a59f3a95e6cb7f8cf5dedecc5f96df03 *gd89-04-11 t02 Shakedown Street.flac
62900a015021deccb01792d4ad562c9e *gd89-04-11 t03 Little Red Rooster.flac
812357a451f2bff4d7d4371b722ee1b2 *gd89-04-11 t04 Friend Of The Devil.flac
185ee8800b3a5732648621a1b63c240b *gd89-04-11 t05 Victim Or The Crime.flac
bc0a94aaff85f489b758f027894e2055 *gd89-04-11 t06 Built To Last.flac
444cf30a85641f35ff36ae5bce5b10af *gd89-04-11 t07 We Can Run.flac
95153fae8335e5d428c293dd223207db *gd89-04-11 t08 Memphis Blues Again.flac
5b9bc2113cafb162888816bc1493164a *gd89-04-11 t09 Deal.flac
4f8a4daf721c4224898bcb7677919f92 *gd89-04-11 t10 Crowd.flac
f0f8d367d81fa5a206b4787c7d743241 *gd89-04-11 t11 Samson & Delilah.flac
ae5bc2f3eb96bc4703c186e38819c906 *gd89-04-11 t12 Crazy Fingers.flac
213d3568b96432c75f5b6a54582b9524 *gd89-04-11 t13 Playin' In The Band.flac
c294510a411e486b44dd443e3157f304 *gd89-04-11 t14 Terrapin Station.flac
697a0cc3322a9603f65d58eeb7bfc728 *gd89-04-11 t15 Drums.flac
7bc27ebfaa07beb58a8c4e2ddebbeb35 *gd89-04-11 t16 Space.flac
0822af2bedb3c556179ecf93002715ab *gd89-04-11 t17 Gimme Some Lovin'.flac
c2a6b57fef0213dc1f4d7c69435c1849 *gd89-04-11 t18 Standing On The Moon.flac
da4691cb7d8f86980d36ae9eef863fa1 *gd89-04-11 t19 Throwing Stones.flac
6d6f9ba09d342a30e9957c957fdfbe63 *gd89-04-11 t20 Not Fade Away.flac
f430beee67347e72514e7a114972b4bf *gd89-04-11 t21 Not Fade Away Chant.flac
456ebdae2b33640e3042872b62103c2e *gd89-04-11 t22 US Blues.flac

Comments
Add Comment
Other Sources (comments)
SBD -> Dat -> Samplitude ->... (0) flac16; Source:... (0) flac16; Recorded by... (0) flac24; Master... (0) flac16; Master... (0)
Date User Comment