Browse Collections Artists Sources   Search Dates

Add Show    List Management    Help


Grateful Dead 09/08/87
Providence Civic Center, Providence, RI
Comments Add Comment    Source Collectors    Add to Collection    Add to Want List    History
Source # 141882 Other Sources
Entered by Matt Vernon
Checksums ffp , flac-md5
Disc Counts 0 / 0
Media Size
Date Circulated
Date Added
05/06/2018
05/06/2018
Source Summary flac16; Recording Info: Ultramatrix PCM > PCM; Transfer Info: PCM (Sony SL-10)> Sony PCM-601ESD > Behringer Ultramatch Pro > Tascam DA-3000 (wav 16-bit/44.1k)> Adobe Audition 3.0 > TLH flac16 
  Archive
Source Information - Download Text | Download Zip
Grateful Dead
Civic Center
Providence, RI
Tuesday September 8th, 1987

Recording Info:
Ultramatrix PCM  > PCM

Transfer Info:
PCM (Sony SL-10)> Sony PCM-601ESD > Behringer Ultramatch Pro > Tascam DA-3000 (wav 16-bit/44.1k)> Adobe Audition 3.0 > TLH flac16

Notes:
- Thanks to Tim Dalton for the source PCM
- Thanks to Charlie Miller for the transfer and coordinating this effort
- Other One space included in "The Other One"

Mastered by Scott Clugston
May 5, 2018

Set One:
t01 - Mississippi Half-Step Uptown Toodeloo >
t02 - Little Red Rooster
t03 - They Love Each Other
t04 - Queen Jane Approximately
t05 - Row Jimmy
t06 - The Music Never Stopped >
t07 - Don't Ease Me In

Set Two:
t08 - Tuning
t09 - Hell In A Bucket >
t10 - Fire On The Mountain
t11 - Looks Like Rain >
t12 - Terrapin Station >
t13 - Drums >
t14 - Space >
t15 - The Other One >
t16 - Stella Blue >
t18 - Turn On Your Lovelight
t18 - Encore Break
t19 - Black Muddy River



    length     expanded size    cdr  WAVE problems  fmt   ratio  filename
     8:28.08       89630060 B   ---   --   ---xx   flac  0.5613  gd87-09-08 t01 Mississippi Half-Step Uptown Toodeloo.flac
    10:32.00      111484844 B   ---   --   ---xx   flac  0.5639  gd87-09-08 t02 Little Red Rooster.flac
     9:17.07       98271308 B   ---   --   ---xx   flac  0.5157  gd87-09-08 t03 They Love Each Other.flac
     5:41.40       60246524 B   ---   --   ---xx   flac  0.5374  gd87-09-08 t04 Queen Jane Approximately.flac
    10:32.66      111640076 B   ---   --   ---xx   flac  0.5031  gd87-09-08 t05 Row Jimmy.flac
     7:10.67       76009628 B   ---   --   ---xx   flac  0.5613  gd87-09-08 t06 The Music Never Stopped.flac
     3:39.12       38659868 B   ---   --   ---xx   flac  0.5761  gd87-09-08 t07 Don't Ease Me In.flac
     1:08.41       12091676 B   ---   --   ---xx   flac  0.3946  gd87-09-08 t08 Tuning.flac
     6:00.06       63518156 B   ---   --   ---xx   flac  0.6066  gd87-09-08 t09 Hell In A Bucket.flac
    11:32.28      122134700 B   ---   --   ---xx   flac  0.5504  gd87-09-08 t10 Fire On The Mountain.flac
     9:30.39      100639772 B   ---   --   ---xx   flac  0.5472  gd87-09-08 t11 Looks Like Rain.flac
    11:16.05      119258204 B   ---   --   ---xx   flac  0.5358  gd87-09-08 t12 Terrapin Station.flac
     7:32.52       79855148 B   ---   --   ---xx   flac  0.4898  gd87-09-08 t13 Drums.flac
     5:14.17       55429628 B   ---   --   ---xx   flac  0.3731  gd87-09-08 t14 Space.flac
     8:32.34       90396812 B   ---   --   ---xx   flac  0.5488  gd87-09-08 t15 The Other One.flac
     7:39.58       81104060 B   ---   --   ---xx   flac  0.4998  gd87-09-08 t16 Stella Blue.flac
     5:26.27       57569948 B   ---   --   ---xx   flac  0.5792  gd87-09-08 t17 Turn On Your Lovelight.flac
     2:37.55       27824204 B   ---   --   ---xx   flac  0.4389  gd87-09-08 t18 Encore Break.flac
     6:50.38       72413420 B   ---   --   ---xx   flac  0.5204  gd87-09-08 t19 Black Muddy River.flac
   138:43.00     1468178036 B                            0.5313  (19 files)


Show Checksums
ffp
gd87-09-08 t01 Mississippi Half-Step Uptown Toodeloo.flac:1603a7dd77bb31ecb20dff51c4a1b89c
gd87-09-08 t02 Little Red Rooster.flac:fa88c320748abc3a3ee5d516d237811c
gd87-09-08 t03 They Love Each Other.flac:4223c66fa51890fb4a73b700459f0671
gd87-09-08 t04 Queen Jane Approximately.flac:59dbe1cdc20b078dbd7bc42e48a795eb
gd87-09-08 t05 Row Jimmy.flac:5cead893d74dba00d9c4cc39b8abfd91
gd87-09-08 t06 The Music Never Stopped.flac:6021a044b60cc9f5c70cc94eafc2e3d3
gd87-09-08 t07 Don't Ease Me In.flac:7fc1816ee36245e766ec44dc61b9e431
gd87-09-08 t08 Tuning.flac:e41c65e34a59d4ae0ae356f61d8a2167
gd87-09-08 t09 Hell In A Bucket.flac:9bdd80558da6716b11dce073629024ac
gd87-09-08 t10 Fire On The Mountain.flac:59b41acf2985c83d9e2fc2e112ad4592
gd87-09-08 t11 Looks Like Rain.flac:d9308581c0153fcb2fd4df64a76fe71d
gd87-09-08 t12 Terrapin Station.flac:609b911071dc8d5ef5cbb3562c4fcb15
gd87-09-08 t13 Drums.flac:01e1b816ec9ff56c2b53f61f4a424ba9
gd87-09-08 t14 Space.flac:06979bd9c7782ddccc05c0351a0a64c4
gd87-09-08 t15 The Other One.flac:82abd069d3207095dc7c0c8925d38043
gd87-09-08 t16 Stella Blue.flac:75efcfe4a4414adb4b6a053791c0e403
gd87-09-08 t17 Turn On Your Lovelight.flac:a335cd97f83b31c6e2c5492e1838d933
gd87-09-08 t18 Encore Break.flac:04f4ff6ace9f39e7e8b40f4ac5ea8266
gd87-09-08 t19 Black Muddy River.flac:b3f6abe545b7612451c5d11e564dc161
flac-md5
3ef354f84f0925d8b30092064bef3ca1 *gd87-09-08 t01 Mississippi Half-Step Uptown Toodeloo.flac
90d1449d0f0fb1af0e4e3e58709d4dc3 *gd87-09-08 t02 Little Red Rooster.flac
ab2a11e1add6a735f4ccb48ead6156bf *gd87-09-08 t03 They Love Each Other.flac
475db1b9feefe5cfd7296ebbecc1f53a *gd87-09-08 t04 Queen Jane Approximately.flac
130c4a3c1ff799f522794ea27c191204 *gd87-09-08 t05 Row Jimmy.flac
2eca98c59d6c16fa414e371ee6a60197 *gd87-09-08 t06 The Music Never Stopped.flac
2bef7d7eb1d38bd0649e9b1b55f67919 *gd87-09-08 t07 Don't Ease Me In.flac
1f50ea0cc1fce5c7d25d740f59500613 *gd87-09-08 t08 Tuning.flac
b231e4a1d1a0f25631e2af8b86c51c38 *gd87-09-08 t09 Hell In A Bucket.flac
5d6cf7a36c2c22f3ffce9d9d3a4f40f1 *gd87-09-08 t10 Fire On The Mountain.flac
d3ddec8ee88135d466b92c3fa4978a4f *gd87-09-08 t11 Looks Like Rain.flac
7aff3d16ea96e6fe4eceb4f3d409b616 *gd87-09-08 t12 Terrapin Station.flac
e1ae9172f7c875ae40e68c17d5e34f59 *gd87-09-08 t13 Drums.flac
9691acd033a32ce4e551655cd0ee73d1 *gd87-09-08 t14 Space.flac
fb82d7c4c527465c3f3a43f7f47f7544 *gd87-09-08 t15 The Other One.flac
238a1ca035c2e12fab376d2ee5c3aaa6 *gd87-09-08 t16 Stella Blue.flac
c6adcf910af7f4780090f4bfdc0b598d *gd87-09-08 t17 Turn On Your Lovelight.flac
c4090a89819b4e5823c64f5c4eaddef7 *gd87-09-08 t18 Encore Break.flac
3267babcbf03ff232e2a4739b4f1b690 *gd87-09-08 t19 Black Muddy River.flac

Comments
Add Comment
Other Sources (comments)
Unknown Soundboard Slight... (0) Sony ECM220T mics from... (0) SBD -> PCM -> Dat -> CD ->... (0) flac16; Source: AUD,... (0) flac16; Source:... (0) flac16; taper : Joe... (0) flac16; Master:... (0) flac16; Nakamichi... (0) flac16; Recording... (0) flac16; Recording... (0)
Date User Comment