Browse Collections Artists Sources   Search Dates

Add Show    List Management    Help


Grateful Dead 12/27/87
Oakland-Alameda County Coliseum, Oakland, CA
Comments Add Comment    Source Collectors    Add to Collection    Add to Want List    History
Source # 141883 Other Sources
Entered by Matt Vernon
Checksums ffp , flac-md5
Disc Counts 0 / 0
Media Size
Date Circulated
Date Added
05/06/2018
05/06/2018
Source Summary flac16; Source Info: (FOB) Audience > unknown Schoeps mics > PCM; Transfer Info: PCM (Sony SL-10)> Sony PCM-601ESD > Behringer Ultramatch Pro > Tascam DA-3000 (wav 16-bit/44.1k)> Adobe Audition 3.0 > TLH flac16 
  Archive
Source Information - Download Text | Download Zip
Grateful Dead
Oakland Coliseum Arena
Oakland, CA
Sunday December 27th, 1987

Source Info:
(FOB) Audience > unknown Schoeps mics > PCM

Transfer Info:
PCM (Sony SL-10)> Sony PCM-601ESD > Behringer Ultramatch Pro > Tascam DA-3000 (wav 16-bit/44.1k)> Adobe Audition 3.0 > TLH flac16

Notes:
- Thanks to Tim Dalton for the PCM source
- Thanks to Charlie Miller for the transfer and coordinating this effort
- Thanks to Greg Holtz, bGreen and Evan K for the shnid97960 Nakamichi 300 source which supplies a 0:16 patch in "Touch Of Grey"

Mastered by Scott Clugston
May 3, 2018

Set One:
t01 - Crowd
t02 - Touch Of Grey
t03 - Jack Straw
t04 - Peggy O
t05 - Walkin' Blues
t06 - Ramble On Rose
t07 - Me And My Uncle >
t08 - Big River
t09 - It Must Have Been The Roses
t10 - Desolation Row >
t11 - Don't Ease Me In

Set 2:
t12 - Crowd
t13 - Playin' In The Band >
t14 - Uncle John's Band >
t15 - Estimated Prophet >
t16 - Eyes Of The World >
t17 - Drums >
t18 - Space >
t19 - Dear Mr. Fantasy >
t20 - Stella Blue >
t21 - Throwing Stones >
t22 - Turn On Your Lovelight
t23 - Encore Break
t24 - The Mighty Quinn (Quinn The Eskimo)



    length     expanded size    cdr  WAVE problems  fmt   ratio  filename
     0:46.52        8236748 B   ---   --   ---xx   flac  0.4974  gd87-12-27 t01 Crowd.flac
     6:19.35       66937964 B   ---   --   ---xx   flac  0.6968  gd87-12-27 t02 Touch Of Grey.flac
     7:26.67       78832028 B   ---   --   ---xx   flac  0.6365  gd87-12-27 t03 Jack Straw.flac
     6:00.28       63569900 B   ---   --   ---xx   flac  0.6416  gd87-12-27 t04 Peggy O.flac
     6:24.25       67796444 B   ---   --   ---xx   flac  0.5994  gd87-12-27 t05 Walkin' Blues.flac
    10:42.73      113420540 B   ---   --   ---xx   flac  0.5794  gd87-12-27 t06 Ramble On Rose.flac
     2:45.30       29176604 B   ---   --   ---xx   flac  0.6691  gd87-12-27 t07 Me & My Uncle.flac
     6:47.69       71957132 B   ---   --   ---xx   flac  0.6292  gd87-12-27 t08 Big River.flac
     5:51.07       61932908 B   ---   --   ---xx   flac  0.6213  gd87-12-27 t09 It Must Have Been The Roses.flac
     9:26.55       99971804 B   ---   --   ---xx   flac  0.6581  gd87-12-27 t10 Desolation Row.flac
     3:43.50       39454844 B   ---   --   ---xx   flac  0.6947  gd87-12-27 t11 Don't Ease Me In.flac
     5:36.43       59371580 B   ---   --   ---xx   flac  0.4498  gd87-12-27 t12 Crowd.flac
     9:05.56       96269756 B   ---   --   ---xx   flac  0.6638  gd87-12-27 t13 Playin' In The Band.flac
     8:03.00       85201244 B   ---   --   ---xx   flac  0.6926  gd87-12-27 t14 Uncle John's Band.flac
    10:30.58      111268460 B   ---   --   ---xx   flac  0.6779  gd87-12-27 t15 Estimated Prophet.flac
     8:36.59       91161212 B   ---   --   ---xx   flac  0.6908  gd87-12-27 t16 Eyes Of The World.flac
     9:39.21      102185036 B   ---   --   ---xx   flac  0.5326  gd87-12-27 t17 Drums.flac
     8:32.24       90373292 B   ---   --   ---xx   flac  0.4480  gd87-12-27 t18 Space.flac
     6:49.22       72199388 B   ---   --   ---xx   flac  0.6523  gd87-12-27 t19 Dear Mr. Fantasy.flac
     7:53.42       83536028 B   ---   --   ---xx   flac  0.5676  gd87-12-27 t20 Stella Blue.flac
     9:08.70       96831884 B   ---   --   ---xx   flac  0.6844  gd87-12-27 t21 Throwing Stones.flac
     5:06.37       54065468 B   ---   --   ---xx   flac  0.6648  gd87-12-27 t22 Turn On Your Lovelight.flac
     4:27.65       47251724 B   ---   --   ---xx   flac  0.5220  gd87-12-27 t23 Encore Break.flac
     5:24.03       57160700 B   ---   --   ---xx   flac  0.6604  gd87-12-27 t24 The Mighty Quinn (Quinn The Eskimo).flac
   165:10.16     1748162688 B                            0.6216  (24 files)


Show Checksums
ffp
gd87-12-27 t01 Crowd.flac:4e3399613c9af99e8196d585ea744e1a
gd87-12-27 t02 Touch Of Grey.flac:f6d92db39f051d9cea5c8089979c5798
gd87-12-27 t03 Jack Straw.flac:190ac2a0dcd0115a4c012d5e355fd5b7
gd87-12-27 t04 Peggy O.flac:7764e77db38056685a8765d8bf5df169
gd87-12-27 t05 Walkin' Blues.flac:0fac6c35be781adabff2c6e750840d95
gd87-12-27 t06 Ramble On Rose.flac:3eb6b68a2aa84c990e7a06cdd8b4ddf7
gd87-12-27 t07 Me & My Uncle.flac:49e93f08bd14cc4bd2841c16e5a29f75
gd87-12-27 t08 Big River.flac:dd375fe15faa7637c934c1f62bc5cd10
gd87-12-27 t09 It Must Have Been The Roses.flac:dc5869b4a8c2338d29363a1b33115913
gd87-12-27 t10 Desolation Row.flac:afa4afeb767d8053c8d7506118fda14c
gd87-12-27 t11 Don't Ease Me In.flac:5639e9bf8a6f8b66ab35dc57ea831932
gd87-12-27 t12 Crowd.flac:60690b3dbcfc10c1ef2af479051ab008
gd87-12-27 t13 Playin' In The Band.flac:857eda07e93c7f711cffd6b5acec429f
gd87-12-27 t14 Uncle John's Band.flac:cf28b592d38953f14bb48d9e318f97a4
gd87-12-27 t15 Estimated Prophet.flac:14d4df2d1e796e11b578b6a07668f509
gd87-12-27 t16 Eyes Of The World.flac:9e5ab2e332509272cab843a7c0011e6c
gd87-12-27 t17 Drums.flac:71ad3efde045d520129bec61b82d5a6b
gd87-12-27 t18 Space.flac:6ebf313985067c7f091e87ddb85a44d8
gd87-12-27 t19 Dear Mr. Fantasy.flac:e08f7820c571bfb9fbd02f724003b6c1
gd87-12-27 t20 Stella Blue.flac:23b85eedfffd47accf43db008443de93
gd87-12-27 t21 Throwing Stones.flac:85e50380bc7e15f2a2da976809f51683
gd87-12-27 t22 Turn On Your Lovelight.flac:2ee2a6476e3041aa3fdbee006cec470d
gd87-12-27 t23 Encore Break.flac:ec0f29544060bc4fdc5572f4ad395670
gd87-12-27 t24 The Mighty Quinn (Quinn The Eskimo).flac:a26a3018109658b1edb1d8db2f333542
flac-md5
9b189ec243d911e8c8e4782db874538b *gd87-12-27 t01 Crowd.flac
7899a206c3af209c8911571682421947 *gd87-12-27 t02 Touch Of Grey.flac
007eb5af1c9341a52a50d329b989baa5 *gd87-12-27 t03 Jack Straw.flac
63d38673b8dbc01433dd06c467052e56 *gd87-12-27 t04 Peggy O.flac
c62df875935b0bbdfb4f85927cf2d476 *gd87-12-27 t05 Walkin' Blues.flac
f99e11e53055600d99897a4a08fe5c87 *gd87-12-27 t06 Ramble On Rose.flac
21a76a10406eba1727d42208b79c43f7 *gd87-12-27 t07 Me & My Uncle.flac
7e2b4cfbec0bd848410cec3e9ce996c7 *gd87-12-27 t08 Big River.flac
0149999d66907c827263a4baa059a0c5 *gd87-12-27 t09 It Must Have Been The Roses.flac
dfbff218e9ebc3be73c19bd6a06120f7 *gd87-12-27 t10 Desolation Row.flac
9afe4e4ec6e657d5e971b122ee874b55 *gd87-12-27 t11 Don't Ease Me In.flac
802163f38fd27dcda74e4cd5cb653df4 *gd87-12-27 t12 Crowd.flac
f1acbd00952264902f1bec3574a0e938 *gd87-12-27 t13 Playin' In The Band.flac
3fdd4cbd57baeb876e6eb97cb0e3eab7 *gd87-12-27 t14 Uncle John's Band.flac
3e80292ddbb26cdf64e679832a2cd5f9 *gd87-12-27 t15 Estimated Prophet.flac
edcd846aa8aa0087cc5afd2748a7101a *gd87-12-27 t16 Eyes Of The World.flac
b8872ffa6f6fcd5b1ab38e8209b92775 *gd87-12-27 t17 Drums.flac
39f06da342d516e9019f852b1270e141 *gd87-12-27 t18 Space.flac
52ccef466b1d8c4d9da05f97b26e2899 *gd87-12-27 t19 Dear Mr. Fantasy.flac
4f56702bad02eedc5c2e75213d3903ac *gd87-12-27 t20 Stella Blue.flac
3733d57d8252bcb49d9a0b181234c66f *gd87-12-27 t21 Throwing Stones.flac
716cacf450fa510209ed0b16c282154d *gd87-12-27 t22 Turn On Your Lovelight.flac
d8e5cff3be2bc74bc4ffc54cc801c1ff *gd87-12-27 t23 Encore Break.flac
a10d14cb2d385fa788e14dbfebc508ac *gd87-12-27 t24 The Mighty Quinn (Quinn The Eskimo).flac

Comments
Add Comment
Other Sources (comments)
SBD -> Cm -> Dat (Tascam... (0) Soundboard-> Cassette... (0) flac16; Recording... (0) flac16; Source:... (1) flac24; OTS AUD: 2x... (0) flac24; Source:... (0)
Date User Comment