Browse Collections Artists Sources   Search Dates

Add Show    List Management    Help


Grateful Dead 05/14/80
Nassau Coliseum, Uniondale, NY
Comments Add Comment    Source Collectors    Add to Collection    Add to Want List    History
Source # 141890 Other Sources
Entered by Matt Vernon
Checksums ffp , flac-md5
Disc Counts 0 / 0
Media Size
Date Circulated
Date Added
05/07/2018
05/07/2018
Source Summary flac16; Source Info: Master Soundboard Cassettes > Reel to Reel > Dat > HHB-CDR 850 > EAC > Cool Edit Pro; This is a remaster of shnid 3295 from 2001 
  Archive
Source Information - Download Text | Download Zip
Grateful Dead
Nassau Veterans' Memorial Coliseum
Uniondale, NY
Wednesday May 14th, 1980

Source Info:
Master Soundboard Cassettes > Reel to Reel > Dat > HHB-CDR 850 > EAC > Cool Edit Pro

This is a remaster of shnid3295 from 2001

Notes:
- Thanks to Gregg Nixon for the source CDR's
- Thanks to Jim Wise and David Minches for the shid125962 Nakamichi 700 + Nakamichi 300 blend audience source which supplies the crowd and first few seconds of "Alabama Getaway" (0:09 total), the final chord of "The Music Never Stopped" and the set break announcement (0:16 total), a 0:12 patch in "Comes A Time", as well the "Encore Break" and "Don't Ease Me In" in their entireties
- Problems with the mix in "Alabama Getaway"
- Channels corrected

Remastered by Scott Clugston
May 7, 2018

Set One:
t01 - Alabama Getaway >
t02 - Promised Land
t03 - Candyman
t04 - Mexicali Blues >
t05 - El Paso
t06 - Tennessee Jed
t07 - Let It Grow >
t08 - Althea
t09 - Easy To Love You >
t10 - The Music Never Stopped

Set Two:
t11 - Feel Like A Stranger >
t12 - Sugaree >
t13 - Lost Sailor >
t14 - Saint of Circumstance >
      Jam >
t15 - Comes A Time >
t16 - The Other One >
t17 - Drums >
t08 - Space >
t09 - Black Peter >
t20 - Around & Around >
t21 - Johnny B. Goode
t22 - Encore Break
t23 - Don't Ease Me In




    length     expanded size    cdr  WAVE problems  fmt   ratio  filename
     4:13.55       44758604 B   ---   --   ---xx   flac  0.5581  gd80-05-14 t01 Alabama Getaway.flac
     4:29.19       47496332 B   ---   --   ---xx   flac  0.5408  gd80-05-14 t02 Promised Land.flac
     8:07.47       86017388 B   ---   --   ---xx   flac  0.4840  gd80-05-14 t03 Candyman.flac
     4:32.51       48100796 B   ---   --   ---xx   flac  0.5283  gd80-05-14 t04 Mexicali Blues.flac
     4:41.63       49716620 B   ---   --   ---xx   flac  0.5024  gd80-05-14 t05 El Paso.flac
     9:40.32      102387308 B   ---   --   ---xx   flac  0.5046  gd80-05-14 t06 Tennessee Jed.flac
     9:00.39       95347772 B   ---   --   ---xx   flac  0.5108  gd80-05-14 t07 Let It Grow.flac
     8:44.69       92595932 B   ---   --   ---xx   flac  0.4799  gd80-05-14 t08 Althea.flac
     3:48.61       40362716 B   ---   --   ---xx   flac  0.5134  gd80-05-14 t09 Easy To Love You.flac
     7:46.43       82303580 B   ---   --   ---xx   flac  0.5217  gd80-05-14 t10 The Music Never Stopped.flac
     8:12.16       86826476 B   ---   --   ---xx   flac  0.5117  gd80-05-14 t11 Feel Like A Stranger.flac
    11:11.46      118472636 B   ---   --   ---xx   flac  0.5031  gd80-05-14 t12 Sugaree.flac
     6:21.10       67231964 B   ---   --   ---xx   flac  0.4676  gd80-05-14 t13 Lost Sailor.flac
     8:52.06       93858956 B   ---   --   ---xx   flac  0.4939  gd80-05-14 t14 Saint Of Circumstance_Jam.flac
     9:31.45      100830284 B   ---   --   ---xx   flac  0.4505  gd80-05-14 t15 Comes A Time.flac
     6:35.14       69710972 B   ---   --   ---xx   flac  0.5178  gd80-05-14 t16 The Other One.flac
     8:49.36       93400316 B   ---   --   ---xx   flac  0.4878  gd80-05-14 t17 Drums.flac
     2:57.00       31222844 B   ---   --   ---xx   flac  0.4445  gd80-05-14 t18 Space.flac
     9:16.14       98111372 B   ---   --   ---xx   flac  0.4769  gd80-05-14 t19 Black Peter.flac
     3:58.12       42011468 B   ---   --   ---xx   flac  0.5210  gd80-05-14 t20 Around & Around.flac
     4:10.25       44158844 B   ---   --   ---xx   flac  0.5545  gd80-05-14 t21 Johnny B. Goode.flac
     0:34.13        6028220 B   ---   --   ---xx   flac  0.4903  gd80-05-14 t22 Encore Break.flac
     3:31.43       37321580 B   ---   --   ---xx   flac  0.5886  gd80-05-14 t23 Don't Ease Me In.flac
   149:07.09     1578272980 B                            0.5018  (23 files)


Show Checksums
ffp
gd80-05-14 t01 Alabama Getaway.flac:4b56b914e5cef8fe578e2bd50a1577da
gd80-05-14 t02 Promised Land.flac:5a019d714277cacd73b1c3bd77cc4c88
gd80-05-14 t03 Candyman.flac:6a82b7d09793c63418b30062c6297742
gd80-05-14 t04 Mexicali Blues.flac:b7fc56badf70d4a09e8c74c8567b45b6
gd80-05-14 t05 El Paso.flac:e5995b2bad2cbaf61bb29dd4a57fd683
gd80-05-14 t06 Tennessee Jed.flac:61e409e51b54b9f1e8c4e6d7630d8e7d
gd80-05-14 t07 Let It Grow.flac:8f25179c890a05c91884dad7169e2841
gd80-05-14 t08 Althea.flac:851ff5042ef26d736d43c4f1dcc39139
gd80-05-14 t09 Easy To Love You.flac:3ba69a00c2297b16edbde334caae4776
gd80-05-14 t10 The Music Never Stopped.flac:514ccd0ea43d3684a07708244c82c1b2
gd80-05-14 t11 Feel Like A Stranger.flac:587cf17997251f28169136f00a7a7223
gd80-05-14 t12 Sugaree.flac:958bd629e4dee3dc6e019d5cf4bdd8cc
gd80-05-14 t13 Lost Sailor.flac:65776e34e404ec3c794537c1812cb453
gd80-05-14 t14 Saint Of Circumstance_Jam.flac:33a658bfbeb522d22717de7481fc9ea6
gd80-05-14 t15 Comes A Time.flac:9f1ed3f63d563f6be34ca676e48e6c74
gd80-05-14 t16 The Other One.flac:9cc103af12451ed68c46c931a7507e3c
gd80-05-14 t17 Drums.flac:03466b82282027de63e732b451089920
gd80-05-14 t18 Space.flac:7c37547d48f4dc3801fd4ec07c1b043b
gd80-05-14 t19 Black Peter.flac:71c8a7df1b6f9688c7bd3afd13930478
gd80-05-14 t20 Around & Around.flac:7bc9a1260e24082d168ae753f3382788
gd80-05-14 t21 Johnny B. Goode.flac:271988371eb6b2121dfbfb4fe4fd5755
gd80-05-14 t22 Encore Break.flac:1209ba06d00bbfdc825d91c26b4c42f2
gd80-05-14 t23 Don't Ease Me In.flac:f53cd1e5fa91274072aa6995363784e2
flac-md5
631f5e897ecf74784bacaa2b77aefac1 *gd80-05-14 t01 Alabama Getaway.flac
eccb17d849020045467039773fc3e9e8 *gd80-05-14 t02 Promised Land.flac
60b59b64097af08ff7656f16965e7710 *gd80-05-14 t03 Candyman.flac
6edb51ccfce319f4394b1cf4d6d607ef *gd80-05-14 t04 Mexicali Blues.flac
bf8e20bb5fa08af100e8a2a739d17573 *gd80-05-14 t05 El Paso.flac
782d404369532e7ea15dc2bcbef9b0d5 *gd80-05-14 t06 Tennessee Jed.flac
78c1f37e1ccded576b7ba9463ce07185 *gd80-05-14 t07 Let It Grow.flac
b32946d8d527fd8b712b0f90eef5afe0 *gd80-05-14 t08 Althea.flac
178249e72579588ac169862ebaba0d42 *gd80-05-14 t09 Easy To Love You.flac
523d22045a2d496ca79381f72e4299c5 *gd80-05-14 t10 The Music Never Stopped.flac
3e058f6e04e12e648de8322a0cc5cd64 *gd80-05-14 t11 Feel Like A Stranger.flac
6aa3b2498e5f5bddf39dd5914509a49a *gd80-05-14 t12 Sugaree.flac
e1b360cc50929181771ef8d9b7c6f6cd *gd80-05-14 t13 Lost Sailor.flac
29ed54ef4bc3297332f5b85b835b85a3 *gd80-05-14 t14 Saint Of Circumstance_Jam.flac
994ef4abd15d4259a02ee8804f88100a *gd80-05-14 t15 Comes A Time.flac
b22088b8715d9aee7383e15a34f0089a *gd80-05-14 t16 The Other One.flac
d09a14a169cf7e6c8cb8ad326029739e *gd80-05-14 t17 Drums.flac
662732ed7cc4c55177f1accd289f98d5 *gd80-05-14 t18 Space.flac
edcffe3557ddb90b4451ae85cb3291a7 *gd80-05-14 t19 Black Peter.flac
a06655196dd385224dafca28ec2c9382 *gd80-05-14 t20 Around & Around.flac
b2aac54534d555dd73041e4b40ed0895 *gd80-05-14 t21 Johnny B. Goode.flac
3a84c9e057f7debbfe9aa9465aa91a8a *gd80-05-14 t22 Encore Break.flac
8a835ee8a013c4b680269e356af68429 *gd80-05-14 t23 Don't Ease Me In.flac

Comments
Add Comment
Other Sources (comments)
Master Soundboard Cassette... (0) flac16; Sony ECM-990... (0) flac16; Analog... (0) flac24; Recording by... (0) flac16; 2 source... (0)
Date User Comment