Browse Collections Artists Sources   Search Dates

Add Show    List Management    Help


Grateful Dead 09/16/87
Madison Square Garden, New York, NY
Comments Add Comment    Source Collectors    Add to Collection    Add to Want List    History
Source # 141891 Other Sources
Entered by Matt Vernon
Checksums ffp , flac-md5
Disc Counts 0 / 0
Media Size
Date Circulated
Date Added
05/07/2018
05/07/2018
Source Summary flac16; Source Info: Master (FOB) PCM; AKG 414 mics > Sony PCM-F1 > PCM; Transfer Info: PCM (Sony SL-10)> Sony PCM-601ESD > Behringer Ultramatch Pro > Tascam DA-3000 (wav 16-bit/44.1k)> Adobe Audition 3.0 > TLH flac16 
  Archive
Source Information - Download Text | Download Zip
Grateful Dead
Madison Square Garden
New York, NY
Wednesday September 16th, 1987

Source Info:
Master (FOB) PCM; AKG 414 mics > Sony PCM-F1 > PCM

Transfer Info:
PCM (Sony SL-10)> Sony PCM-601ESD > Behringer Ultramatch Pro > Tascam DA-3000 (wav 16-bit/44.1k)> Adobe Audition 3.0 > TLH flac16

Notes:
- Thanks to Tim Dalton for the source PCM
- Thanks to Charlie Miller for the transfer and coordinating this effort
- Thanks to Jon Pasternak and Dave Mallick for the shnid105471 Nakamichi 100 source which supplies a 0:02.5 second patch in "Touch Of Grey", as well as a 0:01.6 patch in "Scarlet Begonias"
- Any help with info for the opening act is appreciated
- Truckin' noodle included in "Truckin'"

Mastered by Scott Clugston
May 4, 2018

Unknown Opening Act:
t01 - ??

Set One:
t02 - Crowd
t03 - Touch Of Grey >
t04 - Scarlet Begonias >
t05 - Little Red Rooster
t06 - Dire Wolf
t07 - My Brother Esau
t08 - High Time >
t09 - Let It Grow >
t10 - Don't Ease Me In

Set Two:
t11 - Crowd
t12 - Bertha >
t13 - Greatest Story Ever Told >
t14 - Devil With The Blue Dress On >
t15 - Good Golly Miss Molly >
t16 - Devil With The Blue Dress On >
t17 - He's Gone>
t18 - Drums>
t19 - Space >
t20 - Truckin'>
t21 - Wharf Rat>
t22 - Throwing Stones>
t23 - Not Fade Away >
t24 - Not Fade Away Chant >
t25 - Going Down The Road Feeling Bad Coda >
t26 - Black Muddy River




    length     expanded size    cdr  WAVE problems  fmt   ratio  filename
    22:30.48      238252940 B   ---   --   ---xx   flac  0.5593  gd87-09-16 t01 Unknown Opening Act.flac
     1:41.00       17816444 B   ---   --   ---xx   flac  0.5142  gd87-09-16 t02 Crowd.flac
     6:19.18       66897980 B   ---   --   ---xx   flac  0.5949  gd87-09-16 t03 Touch Of Grey.flac
     9:19.50       98725244 B   ---   --   ---xx   flac  0.5977  gd87-09-16 t04 Scarlet Begonias.flac
    10:30.53      111256700 B   ---   --   ---xx   flac  0.5882  gd87-09-16 t05 Little Red Rooster.flac
     5:26.00       57506444 B   ---   --   ---xx   flac  0.5498  gd87-09-16 t06 Dire Wolf.flac
     5:12.27       55100348 B   ---   --   ---xx   flac  0.5719  gd87-09-16 t07 My Brother Esau.flac
     7:11.36       76113116 B   ---   --   ---xx   flac  0.5269  gd87-09-16 t08 High Time.flac
    12:31.52      132598748 B   ---   --   ---xx   flac  0.5906  gd87-09-16 t09 Let It Grow.flac
     3:35.11       37951916 B   ---   --   ---xx   flac  0.6129  gd87-09-16 t10 Don't Ease Me In.flac
     3:20.31       35352956 B   ---   --   ---xx   flac  0.4866  gd87-09-16 t11 Crowd.flac
     7:00.37       74175068 B   ---   --   ---xx   flac  0.6077  gd87-09-16 t12 Bertha.flac
     3:52.46       41033036 B   ---   --   ---xx   flac  0.6041  gd87-09-16 t13 Greatest Story Ever Told.flac
     2:01.13       21375020 B   ---   --   ---xx   flac  0.6028  gd87-09-16 t14 Devil With The Blue Dress.flac
     0:44.53        7886300 B   ---   --   ---xx   flac  0.6188  gd87-09-16 t15 Good Golly Miss Molly.flac
     1:12.12       12729068 B   ---   --   ---xx   flac  0.6270  gd87-09-16 t16 Devil With The Blue Dress.flac
    13:50.03      146419100 B   ---   --   ---xx   flac  0.5336  gd87-09-16 t17 He's Gone.flac
    10:16.32      108737708 B   ---   --   ---xx   flac  0.4943  gd87-09-16 t18 Drums.flac
     8:59.29       95147852 B   ---   --   ---xx   flac  0.4405  gd87-09-16 t19 Space.flac
     7:59.61       84639116 B   ---   --   ---xx   flac  0.5809  gd87-09-16 t20 Truckin'.flac
    10:32.58      111621260 B   ---   --   ---xx   flac  0.5616  gd87-09-16 t21 Wharf Rat.flac
     9:29.28      100437500 B   ---   --   ---xx   flac  0.5986  gd87-09-16 t22 Throwing Stones.flac
    10:01.15      106051724 B   ---   --   ---xx   flac  0.5884  gd87-09-16 t23 Not Fade Away.flac
     0:51.53        9121100 B   ---   --   ---xx   flac  0.5564  gd87-09-16 t24 Not Fade Away Chant.flac
     1:34.21       16631036 B   ---   --   ---xx   flac  0.5399  gd87-09-16 t25 Goin' Down The Road Feeling Bad Coda.flac
     7:25.27       78561548 B   ---   --   ---xx   flac  0.5368  gd87-09-16 t26 Black Muddy River.flac
   183:29.64     1942139272 B                            0.5605  (26 files)


Show Checksums
ffp
gd87-09-16 t01 Unknown Opening Act.flac:4dc18d28e5644455a89b3a29dae83643
gd87-09-16 t02 Crowd.flac:bbc863aeacad99efca21f14d874ee23b
gd87-09-16 t03 Touch Of Grey.flac:e9ccff9da29e83a40040df89c0559d79
gd87-09-16 t04 Scarlet Begonias.flac:410269cd529a13df94f5ee1db640450c
gd87-09-16 t05 Little Red Rooster.flac:10a464cd6ebd2de2b56020d8e018e11c
gd87-09-16 t06 Dire Wolf.flac:a50cf2b16efc97495d7347f0ebf3d27e
gd87-09-16 t07 My Brother Esau.flac:8b07b2479b93353b88552db79dbe9d33
gd87-09-16 t08 High Time.flac:1c0e15dbb96a90c901f4553e31d4be5a
gd87-09-16 t09 Let It Grow.flac:41e2e91e5a752eb2c69a19ccb8bea1ff
gd87-09-16 t10 Don't Ease Me In.flac:9dc92632828268d101e0b6588d9d84fd
gd87-09-16 t11 Crowd.flac:17767e87b5d7e930d89decbc419b8e23
gd87-09-16 t12 Bertha.flac:b2444ad246a0e4bbf5bd1838fb587bcb
gd87-09-16 t13 Greatest Story Ever Told.flac:6aea48ad59da587f200f7345792db1ff
gd87-09-16 t14 Devil With The Blue Dress.flac:d944986b90dcc7768062c5d76fa866f1
gd87-09-16 t15 Good Golly Miss Molly.flac:12ce2b40939986591e655e7fbd0a2974
gd87-09-16 t16 Devil With The Blue Dress.flac:05502c0c3eac5590ce2182acbfcd1cea
gd87-09-16 t17 He's Gone.flac:cce08707cf6c0401d9c7d1d17f4a6b0a
gd87-09-16 t18 Drums.flac:a65ac84f76a6251aec5909193b920ea9
gd87-09-16 t19 Space.flac:1d6d0a1f25e97cdc882939f0938832df
gd87-09-16 t20 Truckin'.flac:fd9518967e05569f428e67fc128a2ed7
gd87-09-16 t21 Wharf Rat.flac:8f261a60e9db392ca8d4c393d3fc4e37
gd87-09-16 t22 Throwing Stones.flac:754b467e76978b49934b981f22f4c182
gd87-09-16 t23 Not Fade Away.flac:bd2776443aba6bce2714c4ab570043fb
gd87-09-16 t24 Not Fade Away Chant.flac:f1563eaf6013fb96f676a27d812e73ea
gd87-09-16 t25 Goin' Down The Road Feeling Bad Coda.flac:154463ffd4b72823054b058230eabff4
gd87-09-16 t26 Black Muddy River.flac:6793a0cc66d767688ce17be7260152aa
flac-md5
684b90581ae1f654c8bb22aee915ddde *gd87-09-16 t01 Unknown Opening Act.flac
406291ca61fc94112b402ede97c3a40d *gd87-09-16 t02 Crowd.flac
35c080ffe6e360df5ab32f013d65fe98 *gd87-09-16 t03 Touch Of Grey.flac
9374f5ef8afcfba8fca18f52c2c40b87 *gd87-09-16 t04 Scarlet Begonias.flac
0f5f0eaa5241e9fdfb6d25076ee6edfe *gd87-09-16 t05 Little Red Rooster.flac
ad72c0554645d0f17762cb5215ee34e8 *gd87-09-16 t06 Dire Wolf.flac
8358655c672b6b6f61549a06af492121 *gd87-09-16 t07 My Brother Esau.flac
5b12332074377092318eacd48009cf00 *gd87-09-16 t08 High Time.flac
99df10fcf87f6363b76b903bce1a9def *gd87-09-16 t09 Let It Grow.flac
5fe70fa7d9f87ff7db38267b297cfe6c *gd87-09-16 t10 Don't Ease Me In.flac
2e7926c3187c0fa67102e03944a2163c *gd87-09-16 t11 Crowd.flac
34b2ab7958fadb11f121281b53b8602f *gd87-09-16 t12 Bertha.flac
afb9fa936eaeef20dbeefd2b05f561c0 *gd87-09-16 t13 Greatest Story Ever Told.flac
5167c3c978091c5f7e6e94d974dfc360 *gd87-09-16 t14 Devil With The Blue Dress.flac
6765f58bd2868368739b96ebe3ec2152 *gd87-09-16 t15 Good Golly Miss Molly.flac
938a8cc1b5b7d968e63fe2c1fdad5a26 *gd87-09-16 t16 Devil With The Blue Dress.flac
aa9429ceeb3cc82bf17df51e406f573d *gd87-09-16 t17 He's Gone.flac
f631fe0a60456dc6d131ebddedda02bf *gd87-09-16 t18 Drums.flac
065591475f9dd1925d410bafcf97b4df *gd87-09-16 t19 Space.flac
896616698528b2a8e882dac33096eb30 *gd87-09-16 t20 Truckin'.flac
988663c018030d49ed66bf2fb01db1d5 *gd87-09-16 t21 Wharf Rat.flac
b41ec496cd0d2bd64dec142d453097dc *gd87-09-16 t22 Throwing Stones.flac
ca70dbf0bdd8340a2a7d2d59724a2855 *gd87-09-16 t23 Not Fade Away.flac
8c4116f949d420bcc3d73f1ef41c2516 *gd87-09-16 t24 Not Fade Away Chant.flac
5572f54343b0f39e0e929bb3399ff806 *gd87-09-16 t25 Goin' Down The Road Feeling Bad Coda.flac
83cae560b7cb975a2845ba9c14aca681 *gd87-09-16 t26 Black Muddy River.flac

Comments
Add Comment
Other Sources (comments)
AUD (Schoeps CMC... (0) Partial 2nd Set;... (1) SBD > MC > C > DAT > CD >... (0) flac16; Source:... (0) flac16; Recording... (0) flac16; taper : Joe... (0) flac16; Master:... (1) flac24; 24bit/48kHz... (0) flac16; Taper: M.... (0)
Date User Comment