Browse Collections Artists Sources   Search Dates

Add Show    List Management    Help


Grateful Dead 06/30/87
Kingswood Music Theater, Maple, ON
Comments Add Comment    Source Collectors    Add to Collection    Add to Want List    History
Source # 141896 Other Sources
Entered by Matt Vernon
Checksums ffp , flac-md5
Disc Counts 0 / 0
Media Size Compressed: 964.02 MB (1010843648 bytes)
Date Circulated
Date Added
05/07/2018
05/07/2018
Source Summary flac16; Recording Info: UltraMatrix SBD > Cassette Master (TDK MA-R90); Transfer Info: Cassette Master (Nakamichi CR-7A) > Tascam DA-3000 (DSF 1-bit/5.6 MHz) > KORG AudioGate 4 > Adobe Audition CC2015 > Samplitude Pro X3 Suite > FLAC/24; All Transfers and Mastering By Charlie Miller 
  Archive
Source Information - Download Text | Download Zip
Grateful Dead - June 30, 1987
Kingswood Music Theatre - Maple, ON

Recording Info:
UltraMatrix SBD > Cassette Master (TDK MA-R90)

Transfer Info:
Cassette Master (Nakamichi CR-7A) > Tascam DA-3000 (DSF 1-bit/5.6 MHz) >
KORG AudioGate 4 > Adobe Audition CC2015 > Samplitude Pro X3 Suite > FLAC/24
(1 Disc FLAC)

All Transfers and Mastering By Charlie Miller
[email protected]
April 22, 2018

Notes:
-- The mix has a lot of the ambient mic in it
-- Two sets of masters were used to make this show complete
-- Thanks to the GEMS crew for their contributions to this project
-- This file set is 16 bit @ 44.1 htz

Set 1:
01 - Touch Of Grey >
02 - Greatest Story Ever Told
03 - Loser
04 - New Minglewood Blues
05 - Candyman
06 - Far From Me
07 - Mama Tried >
08 - Big River
09 - Ramble On Rose
10 - When I Paint My Masterpiece >
11 - Don't Ease Me In

Set 2:
12 - Scarlet Begonias >
13 - Fire On The Mountain
14 - Estimated Prophet >
15 - Eyes Of The World >
16 - Drums >
17 - Space >
18 - Spanish Jam >
19 - The Other One >
20 - China Doll >
21 - Dear Mr. Fantasy >
22 - Around And Around >
23 - Good Lovin'

Encore:
24 - Tuning
25 - Box Of Rain


SHNTOOL OUTPUT:
    length     expanded size    cdr  WAVE problems  fmt   ratio  filename
     6:12.35       65703164 B   ---   --   ---xx   flac  0.6316  01 Touch Of Grey.flac
     4:49.58       51116060 B   ---   --   ---xx   flac  0.6325  02 Greatest Story Ever Told.flac
     8:16.19       87539132 B   ---   --   ---xx   flac  0.6134  03 Loser.flac
     8:29.67       89945228 B   ---   --   ---xx   flac  0.6150  04 New Minglewood Blues.flac
     7:25.37       78585068 B   ---   --   ---xx   flac  0.5977  05 Candyman.flac
     5:06.40       54072524 B   ---   --   ---xx   flac  0.6184  06 Far From Me.flac
     2:33.67       27146828 B   ---   --   ---xx   flac  0.6374  07 Mama Tried.flac
     6:49.07       72164108 B   ---   --   ---xx   flac  0.6276  08 Big River.flac
     7:37.50       80732444 B   ---   --   ---xx   flac  0.6076  09 Ramble On Rose.flac
     4:38.27       49102748 B   ---   --   ---xx   flac  0.6257  10 When I Paint My Masterpiece.flac
     3:41.65       39137324 B   ---   --   ---xx   flac  0.6231  11 Don't Ease Me In.flac
     8:33.11       90519116 B   ---   --   ---xx   flac  0.5761  12 Scarlet Begonias.flac
    11:02.45      116882684 B   ---   --   ---xx   flac  0.6101  13 Fire On The Mountain.flac
    10:45.55      113907404 B   ---   --   ---xx   flac  0.6244  14 Estimated Prophet.flac
     9:22.46       99245036 B   ---   --   ---xx   flac  0.6396  15 Eyes Of The World.flac
     8:23.24       88785692 B   ---   --   ---xx   flac  0.5845  16 Drums.flac
     5:27.03       57689900 B   ---   --   ---xx   flac  0.5377  17 Space.flac
     1:39.28       17529500 B   ---   --   ---xx   flac  0.5187  18 Spanish Jam.flac
     6:53.64       73003772 B   ---   --   ---xx   flac  0.6066  19 The Other One.flac
     4:46.08       50469260 B   ---   --   ---xx   flac  0.6114  20 China Doll.flac
     4:48.22       50854988 B   ---   --   ---xx   flac  0.6300  21 Dear Mr Fantasy.flac
     3:42.62       39306668 B   ---   --   ---xx   flac  0.6395  22 Around And Around.flac
     8:32.56       90448556 B   ---   --   ---xx   flac  0.6427  23 Good Lovin'.flac
     0:24.64        4384172 B   ---   --   ---xx   flac  0.5251  24 Tuning.flac
     5:57.53       63099500 B   ---   --   ---xx   flac  0.6019  25 Box Of Rain.flac
   156:01.38     1651370876 B                            0.6121  (25 files)


Show Checksums
ffp
01 Touch Of Grey.flac:03b9678defaddea92e46f1329a7bd7cb
02 Greatest Story Ever Told.flac:9af24f9e85ec8654748a05fc8b967f5e
03 Loser.flac:d7df6d10fe5794f9eb41ef573a04fa22
04 New Minglewood Blues.flac:4c727ba16182a6d3c8493b99604d0359
05 Candyman.flac:758eaa5a5bd51784f07131bd171ba01f
06 Far From Me.flac:c7f25c0adaeffeec9867ff978d0497d1
07 Mama Tried.flac:389c9e5827adea224de418891d6afc47
08 Big River.flac:8e5ce3b0e306d699d310b057dc0558a5
09 Ramble On Rose.flac:ff01fd97130170b38f33b8efbfdea1a4
10 When I Paint My Masterpiece.flac:82213c2a5f2d923ad7b3f365cd2484f9
11 Don't Ease Me In.flac:d77ad15b005e3839d4f6c121bb78b528
12 Scarlet Begonias.flac:754399bfb1f644c53dbb024e66c9c821
13 Fire On The Mountain.flac:65774ce3a0fefc3ff91fc1eb678e6fdd
14 Estimated Prophet.flac:4e158da1bec900951ac43d3c132b9980
15 Eyes Of The World.flac:73004a17b2d7a38d7849f9aeeea94cb6
16 Drums.flac:41da3e55be3127652f12d1b5b392daee
17 Space.flac:d0046cef0aea48d8efa09ad336ddec66
18 Spanish Jam.flac:eabd223c0c2073edc0d7616d8e23a74d
19 The Other One.flac:9fc8cdd59e9e4ca6c184e591bb9f856f
20 China Doll.flac:f4e5dfad07ec41a7331ebabd5fae7149
21 Dear Mr Fantasy.flac:a4067687315233ecd600780f0000737e
22 Around And Around.flac:ec31aa54a52e951781b7a5cbbe49f686
23 Good Lovin'.flac:cb3f58a4ebd3a6a9b82a286fd435923c
24 Tuning.flac:bbb33dde922320fce3276a465aa6bcfb
25 Box Of Rain.flac:95412bb680f91c669017ee17fb8c9a22
flac-md5
ef8aedea116ab430f8e79bb3849ac1ef *01 Touch Of Grey.flac
10fed3e560d16c322f9b38eb6e318769 *02 Greatest Story Ever Told.flac
789ff41ed80aa0c069ff3354c36d3402 *03 Loser.flac
bfff0e3d202c3a92ae1f12823d88f3be *04 New Minglewood Blues.flac
50faf8d10c97a15f20c0a64d5576ab67 *05 Candyman.flac
91b82d415f8e062f7c9dc8f807d59af5 *06 Far From Me.flac
c10f929895c92c9db21068eb9848d518 *07 Mama Tried.flac
29df4bcb4ddd25c5d542df1fe5530a99 *08 Big River.flac
39673d2b3a17fa32c4a9e9526bdcd48f *09 Ramble On Rose.flac
dbf528b954984f6e3bfed32e69cdbccd *10 When I Paint My Masterpiece.flac
8bc6900b5988607d4cbe71b07357b41a *11 Don't Ease Me In.flac
c112e138e40260e8881be101352515be *12 Scarlet Begonias.flac
b9aaa7d97747b262d4e0f70f1c95d655 *13 Fire On The Mountain.flac
0222a48227df9a4e13f8322081e03c5a *14 Estimated Prophet.flac
24a8ad11d513c38ea62b4421cc124c57 *15 Eyes Of The World.flac
c9613eb45249d2e3844b70d85791d71e *16 Drums.flac
ff923b0e9277a0f53b2a3201dc1ed9e0 *17 Space.flac
8b4853f017f3786e9ed67ca8d447df49 *18 Spanish Jam.flac
e00024d3910d1d34125275be3aa6d58e *19 The Other One.flac
ffa55f20bddd7c7cf077948760a4b808 *20 China Doll.flac
cf52a3a47bc47c1b616b6e5be6e2562f *21 Dear Mr Fantasy.flac
11fcf10ac803990b617985c945bce10c *22 Around And Around.flac
a16c6d567b054fe7a234ed0440907b05 *23 Good Lovin'.flac
945b38d9b34103d7fe2863e4bac74207 *24 Tuning.flac
5b57fbadfc250fecfa03b6db6121727c *25 Box Of Rain.flac

Comments
Add Comment
Other Sources (comments)
AUD (mic. unk) > DAT > CDR... (1) Primary Source: Ultra... (1) Seamless fix of (0) flac16; Set 2 only -... (0) flac16; Sbd > ? >... (0) flac24; Recording... (0)
Date User Comment