Browse Collections Artists Sources   Search Dates

Add Show    List Management    Help


Grateful Dead 07/26/87
Anaheim Stadium, Anaheim, CA
Comments Add Comment    Source Collectors    Add to Collection    Add to Want List    History
Source # 141897 Other Sources
Entered by Matt Vernon
Checksums flac-md5 , ffp
Disc Counts 0 / 0
Media Size Compressed: 1.35 GB (1453568000 bytes)
Date Circulated
Date Added
05/07/2018
05/07/2018
Source Summary flac16; Recording Info: UltraMatrix SBD > Cassette Master (TDK MA-R90); Transfer Info: Cassette Master (Nakamichi CR-7A) > Tascam DA-3000 (DSF 1-bit/5.6 MHz) > dBpoweramp > Samplitude Pro X3 Suite > FLAC/24; All Transfers and Mastering By Charlie Miller 
  Archive
Source Information - Download Text | Download Zip
Grateful Dead - July 26, 1987
Anaheim Stadium - Anaheim, CA

Recording Info:
UltraMatrix SBD > Cassette Master (TDK MA-R90)

Transfer Info:
Cassette Master (Nakamichi CR-7A) > Tascam DA-3000 (DSF 1-bit/5.6 MHz) >
dBpoweramp > Samplitude Pro X3 Suite > FLAC/24
(1 Disc FLAC)

All Transfers and Mastering By Charlie Miller
[email protected]
April 23, 2018

Patch Info:
(FOB) Nakamichi 700 (omni) > Cassette Master (shnid=98214) suppliess:
Iko Iko (0:00 - 1:17)
Promised Land (0:02 - 0:11)
Space (3:55 - 4:03)

Notes:
-- Set 3 with Bob Dylan
-- This file set is 16 bit @ 44.1

Set 1:
01 - Iko Iko
02 - New Minglewood Blues
03 - Tons Of Steel
04 - West L.A. Fadeaway
05 - When I Paint My Masterpiece >
06 - Mexicali Blues
07 - Bird Song >
08 - Promised Land

Set 2:
09 - Tuning
10 - Shakedown Street >
11 - Looks Like Rain >
12 - Terrapin Station >
13 - Drums >
14 - Space >
15 - The Other One >
16 - Stella Blue >
17 - Throwing Stones >
18 - Not Fade Away

Set 3:
19 - Mr. Tambourine Man
20 - Dead Man, Dead Man
21 - Maggie's Farm
22 - Simple Twist Of Fate
23 - Watching The River Flow
24 - It's All Over Now, Baby Blue
25 - Chimes Of Freedom
26 - Queen Jane Approximately
27 - Stuck Inside Of Mobile With The Memphis Blues Again
28 - Ballad Of A Thin Man
29 - Rainy Day Women #12 And #35
30 - Gotta Serve Somebody
31 - All Along The Watchtower

Encore:
32 - Encore Break
33 - Touch Of Grey >
34 - Knockin' On Heaven's Door


SHNTOOL OUTPUT:
    length     expanded size    cdr  WAVE problems  fmt   ratio  filename
     6:13.53       65921900 B   ---   --   ---xx   flac  0.6275  01 Iko Iko.flac
     8:28.28       89677100 B   ---   --   ---xx   flac  0.5933  02 New Minglewood Blues.flac
     5:31.70       58553084 B   ---   --   ---xx   flac  0.6156  03 Tons Of Steel.flac
     8:21.17       88416428 B   ---   --   ---xx   flac  0.5943  04 West LA Fadeaway.flac
     3:42.67       39318428 B   ---   --   ---xx   flac  0.6317  05 When I Paint My Masterpiece.flac
     4:51.47       51442988 B   ---   --   ---xx   flac  0.6206  06 Mexicali Blues.flac
     8:40.08       91746860 B   ---   --   ---xx   flac  0.6106  07 Bird Song.flac
     4:24.48       46682540 B   ---   --   ---xx   flac  0.6205  08 Promised Land.flac
     0:31.58        5604860 B   ---   --   ---xx   flac  0.5258  09 Tuning.flac
    11:47.49      124830092 B   ---   --   ---xx   flac  0.6023  10 Shakedown Street.flac
     8:26.37       89345468 B   ---   --   ---xx   flac  0.5854  11 Looks Like Rain.flac
    11:41.44      123759932 B   ---   --   ---xx   flac  0.6043  12 Terrapin Station.flac
     8:44.59       92572412 B   ---   --   ---xx   flac  0.5314  13 Drums.flac
     6:24.04       67747052 B   ---   --   ---xx   flac  0.5530  14 Space.flac
     6:41.69       70898732 B   ---   --   ---xx   flac  0.5963  15 The Other One.flac
     7:15.27       76797548 B   ---   --   ---xx   flac  0.5708  16 Stella Blue.flac
     8:46.04       92795852 B   ---   --   ---xx   flac  0.6030  17 Throwing Stones.flac
     8:58.24       94959692 B   ---   --   ---xx   flac  0.5925  18 Not Fade Away.flac
     5:04.16       53663276 B   ---   --   ---xx   flac  0.6365  19 Mr Tambourine Man.flac
     6:20.42       67130828 B   ---   --   ---xx   flac  0.6185  20 Dead Man, Dead Man.flac
     5:15.27       55629548 B   ---   --   ---xx   flac  0.6362  21 Maggie's Farm.flac
     6:16.16       66364076 B   ---   --   ---xx   flac  0.6187  22 Simple Twist Of Fate.flac
     4:32.40       48074924 B   ---   --   ---xx   flac  0.6384  23 Watching The River Flow.flac
     6:24.51       67857596 B   ---   --   ---xx   flac  0.6052  24 It's All Over Now, Baby Blue.flac
     7:10.58       75988460 B   ---   --   ---xx   flac  0.6032  25 Chimes Of Freedom.flac
     4:15.32       45057308 B   ---   --   ---xx   flac  0.6121  26 Queen Jane Approximately.flac
     7:29.14       79236572 B   ---   --   ---xx   flac  0.6237  27 Stuck Inside Of Mobile With The Memphis Blues Again.flac
     6:52.68       72836780 B   ---   --   ---xx   flac  0.5998  28 Ballad Of A Thin Man.flac
     5:19.22       56323388 B   ---   --   ---xx   flac  0.6138  29 Rainy Day Women #12 And #35.flac
     6:03.54       64160252 B   ---   --   ---xx   flac  0.6049  30 Gotta Serve Somebody.flac
     6:29.14       68652572 B   ---   --   ---xx   flac  0.6328  31 All Along The Watchtower.flac
     3:58.49       42098492 B   ---   --   ---xx   flac  0.5461  32 Encore Break.flac
     6:21.33       67286060 B   ---   --   ---xx   flac  0.6207  33 Touch Of Grey.flac
    11:04.07      117146108 B   ---   --   ---xx   flac  0.5667  34 Knockin' On Heaven's Door.flac
   228:30.56     2418577208 B                            0.6010  (34 files)


Show Checksums
flac-md5
a704b98412a2bc9ed791b14a21108fc9 *01 Iko Iko.flac
db21a60b046b3f1e3668be310a32c72a *02 New Minglewood Blues.flac
feb29cf02d4aed8563498669d7529ba4 *03 Tons Of Steel.flac
79eb0bbca53c86e2aa23905e7a5738c1 *04 West LA Fadeaway.flac
cfc3158b3cbde37ecc3beb137864b973 *05 When I Paint My Masterpiece.flac
25578ab3146f8416dd9de1b6fe2c2075 *06 Mexicali Blues.flac
f49fe4dfffc3b147478721a4512b7fcd *07 Bird Song.flac
4de592ef204899af0865ff7a856420ef *08 Promised Land.flac
d2aa3fb9b620085139e571a814ee9033 *09 Tuning.flac
4406f531c9771d784ff3ba8cf969ed2b *10 Shakedown Street.flac
115d646cee3ddf78108d934335e730ef *11 Looks Like Rain.flac
4009eb3dd94f3ff7f57c7c6d53fef708 *12 Terrapin Station.flac
372681b2c83af9dc03c30c1dd4c44358 *13 Drums.flac
bc23c464bb9d330254673c3928a16b2f *14 Space.flac
fd494c8be75a2787eba915d5b7c32e6b *15 The Other One.flac
d0eecf388dfbab4a402526b2a34704b7 *16 Stella Blue.flac
fffabc580f60adc26dc83baa7c422fd1 *17 Throwing Stones.flac
1fff848ed0eaaaaa97b314ccc33df81e *18 Not Fade Away.flac
78868f576a819821105a6e6d02f46bba *19 Mr Tambourine Man.flac
8a331be7d8968ab2c179e5b531f6adfd *20 Dead Man, Dead Man.flac
eab079c01e26c7d77721212357858dd0 *21 Maggie's Farm.flac
9d19a67ba7453807dce0df670e80f532 *22 Simple Twist Of Fate.flac
80ce29fb65169de84c466b0cf39bc346 *23 Watching The River Flow.flac
130ec5c4e6476d041bc6c09c4ca3cc1f *24 It's All Over Now, Baby Blue.flac
413efae9ce04f00c0b90fc7ae22f7f47 *25 Chimes Of Freedom.flac
9df99bf28c9c1667a4d8aec93e55d7a5 *26 Queen Jane Approximately.flac
4cf5199ff97f6b54a8f57ec0ad61ef6c *27 Stuck Inside Of Mobile With The Memphis Blues Again.flac
1d75cf24eb766f489865858db9906759 *28 Ballad Of A Thin Man.flac
a714d92e014701940232b3540447fdf0 *29 Rainy Day Women #12 And #35.flac
96f5adb5e1f96e3ee7402213ee279d75 *30 Gotta Serve Somebody.flac
0000b9e17cb2f9d94eb25c2e7e2e696c *31 All Along The Watchtower.flac
e372769ac176b57532b7c5cc1c30e8d7 *32 Encore Break.flac
44a01c84c76abf820ac252a52068bbdc *33 Touch Of Grey.flac
5d8b467230edaae779dddb5271f6f9e4 *34 Knockin' On Heaven's Door.flac
ffp
01 Iko Iko.flac:a134fcfbe8e7a79079bbe063a13113a4
02 New Minglewood Blues.flac:dff42227b38a806126976b128bf483da
03 Tons Of Steel.flac:5e563387e4e2af49cca348aa64ebf445
04 West LA Fadeaway.flac:7ba4b0199fcebbcb3277427d50fac730
05 When I Paint My Masterpiece.flac:e480ba58f7a2ca04f3117fded8129b48
06 Mexicali Blues.flac:28504fda77f93a706395c3221ba7c256
07 Bird Song.flac:cd05d05af49900bc588b45ad93a9efde
08 Promised Land.flac:91285d442156a6776cededd63f330f43
09 Tuning.flac:67361937a9188f23f0c0c744b565bb6d
10 Shakedown Street.flac:3bed831aeedaabaeb37ec54f99eb7eca
11 Looks Like Rain.flac:3e5778277e1ba0dae08bfb40c53db746
12 Terrapin Station.flac:a7e6db9ca2c3a3bf930f854d0731dfd8
13 Drums.flac:accb045106cfb3e59c15bfb22b1bfd41
14 Space.flac:3db4169c8c0bd580d051fc756b26c6b1
15 The Other One.flac:0eb79c263a1b19d1f60db09256d56758
16 Stella Blue.flac:973ffeb151fdc99e6c612c74cf406771
17 Throwing Stones.flac:d87ef9f0d4b40fd69424bb7368de0725
18 Not Fade Away.flac:0422949090aece478f870dfaab22d250
19 Mr Tambourine Man.flac:63b7a9ecbc5b4f919b9854395dea535b
20 Dead Man, Dead Man.flac:f44ff3363bd836b7018441fb41c97878
21 Maggie's Farm.flac:ce6f0ce707c30d764bea528320f2fb8c
22 Simple Twist Of Fate.flac:4ac9068b6946bdcf9fe4b7288cb93300
23 Watching The River Flow.flac:d3638623e1bf8ea16ce64192835a4855
24 It's All Over Now, Baby Blue.flac:3452bb7b58b1349d2cbd2f9bb42791e7
25 Chimes Of Freedom.flac:d0e8b9a77732549d13ea2255a3f0459c
26 Queen Jane Approximately.flac:4795b272167971867deaddbfc181430b
27 Stuck Inside Of Mobile With The Memphis Blues Again.flac:513add3793219efb88ac4502bac9ff42
28 Ballad Of A Thin Man.flac:a815e46787c4a8b2f653e83570421c56
29 Rainy Day Women #12 And #35.flac:8ce2a1d8f67677dbc54a952fe21018d6
30 Gotta Serve Somebody.flac:a78af6a6fec84d5de890e1abfc24efe0
31 All Along The Watchtower.flac:64ff2064e6cb32e6ea2abbbdf5017812
32 Encore Break.flac:0359e41ab40ae084b4e41e3e5a47f1b7
33 Touch Of Grey.flac:b0262323d7014cef361cd13a69ded6f6
34 Knockin' On Heaven's Door.flac:f174ac519b879ca92262fb0c72af7c50

Comments
Add Comment
Other Sources (comments)
Soundboard > ? > SHN... (2) flac16; Modified Nak... (2) flac16; Source: 1x... (0) flac16; Set 3... (0) flac16; Source:... (0) flac24; Recording... (0)
Date User Comment