Browse Collections Artists Sources   Search Dates

Add Show    List Management    Help


Grateful Dead 06/05/80
Compton Terrace Amphitheatre, Tempe, AZ
Comments Add Comment    Source Collectors    Add to Collection    Add to Want List    History
Source # 141902 Other Sources
Entered by Matt Vernon
Checksums ffp , flac-md5
Disc Counts 0 / 0
Media Size Compressed: 506.24 MB (530829312 bytes)
Date Circulated
Date Added
05/08/2018
05/08/2018
Source Summary flac16; Set 2 Recording Info: SBD > Cassette Master (Maxell UDXL-II); Transfer Info: Cassette Master (Nakamichi CR-7A) > Tascam DA-3000 (DSF 1-bit/5.6 MHz) > KORG AudioGate 4 > Adobe Audition CC2015 > Samplitude Pro X3 Suite > FLAC/24; All Transfers and Mastering by Charlie Miller 
  Archive
Source Information - Download Text | Download Zip
Grateful Dead - June 5, 1980
Compton Terrace Amphitheatre - Tempe, AZ

Recording Info:
SBD > Cassette Master (Maxell UDXL-II)

Transfer Info:
Cassette Master (Nakamichi CR-7A) > Tascam DA-3000 (DSF 1-bit/5.6 MHz) >
KORG AudioGate 4 > Adobe Audition CC2015 > Samplitude Pro X3 Suite > FLAC/24
(1 DVD FLAC)

All Transfers and Mastering by Charlie Miller
[email protected]
April 14, 2018

Patch Info:
(FOB) Sennheiser 421 > Cassette Master > Dat > CD (shnid=4663) supllies:
China Cat Sunflower (0:00 - 0:21)
U.S. Blues (0:00 - 0:03)

Notes:
-- Thanks to Joe B. Jones for the pitch correction settings
-- This file set is 16 bit @ 44.1 htz

Set 2:
01 - China Cat Sunflower >
02 - I Know You Rider >
03 - Lost Sailor >
04 - Saint Of Circumstance >
05 - Terrapin Station >
06 - Drums >
07 - Space >
08 - Truckin' >
09 - Black Peter >
10 - Around And Around >
11 - Johnny B. Goode

Encore:
12 - U.S. Blues


SHNTOOL OUTPUT:
    length     expanded size    cdr  WAVE problems  fmt   ratio  filename
     5:09.71       54674636 B   ---   --   ---xx   flac  0.6230  01 China Cat Sunflower.flac
     6:36.19       69899132 B   ---   --   ---xx   flac  0.6132  02 I Know You Rider.flac
     5:46.05       61046204 B   ---   --   ---xx   flac  0.5692  03 Lost Sailor.flac
     5:49.07       61580108 B   ---   --   ---xx   flac  0.5926  04 Saint Of Circumstance.flac
    15:19.07      162128108 B   ---   --   ---xx   flac  0.5930  05 Terrapin Station.flac
     9:39.44      102239132 B   ---   --   ---xx   flac  0.5245  06 Drums.flac
     4:51.64       51482972 B   ---   --   ---xx   flac  0.5885  07 Space.flac
     7:32.34       79812812 B   ---   --   ---xx   flac  0.6240  08 Truckin'.flac
     9:42.20      102711884 B   ---   --   ---xx   flac  0.5796  09 Black Peter.flac
     3:56.63       41778620 B   ---   --   ---xx   flac  0.5863  10 Around And Around.flac
     4:51.24       51388892 B   ---   --   ---xx   flac  0.6344  11 Johnny B Goode.flac
     5:38.34       59703212 B   ---   --   ---xx   flac  0.6056  12 US Blues.flac
    84:53.17      898445712 B                            0.5908  (12 files)



Show Checksums
ffp
01 China Cat Sunflower.flac:4281442aaf401a8a85e64c763f8ac195
02 I Know You Rider.flac:471255fc3440288df91256d3ea38a6e6
03 Lost Sailor.flac:81005a0e5ae63079ef86e7a4693d061b
04 Saint Of Circumstance.flac:d353be3e1a3d474e80f811f203416a1c
05 Terrapin Station.flac:755fc9327f0fb60d9d42dc0763e7fd06
06 Drums.flac:a3c2ac7a809cc98ced5c381e51d67150
07 Space.flac:ba45e634e5b21aecc045af9960835e71
08 Truckin'.flac:401f40c18e71efb84a027c4f9e3a6d28
09 Black Peter.flac:52ce39575c77e7c40c66040926840f41
10 Around And Around.flac:287614773e28295fd60451c3b827b025
11 Johnny B Goode.flac:3d001dba86be88749eb5a63ab1877fd3
12 US Blues.flac:2b6a1f326e7fef827c4a777b131e8b69
flac-md5
3af40d112436d19b9aaa064dab2de3aa *01 China Cat Sunflower.flac
d3be633e15ceb16da79052ab6aff1256 *02 I Know You Rider.flac
3504e4fab18c40099c724573f99f3121 *03 Lost Sailor.flac
ec1ad561cbe762d1ff672beaa5d636c2 *04 Saint Of Circumstance.flac
0fdc905472da312758665a68698933b3 *05 Terrapin Station.flac
3935e512624a802333f873622e0c7921 *06 Drums.flac
fa9c0dc5529aaec6221d851f6ecddc52 *07 Space.flac
f2007e60cdc32ea547da938ca459e579 *08 Truckin'.flac
8b72627498ec3dfd3b92afab2f87cf58 *09 Black Peter.flac
672c3fda4971af6e468ff7703f825ed4 *10 Around And Around.flac
48c96693583cc23cf31000835ba0328c *11 Johnny B Goode.flac
0d4d9d4dc1f95a5220e39f08138731fb *12 US Blues.flac

Comments
Add Comment
Other Sources (comments)
FOB (Sennheiser 421's)>... (0) flac16; Source:... (0) flac24; (FOB) Sony... (0) flac24; Set 2... (0)
Date User Comment