Browse Collections Artists Sources   Search Dates

Add Show    List Management    Help


Grateful Dead 05/02/87
Frost Amphitheatre, Palo Alto, CA
Comments Add Comment    Source Collectors    Add to Collection    Add to Want List    History
Source # 141909 Other Sources
Entered by Matt Vernon
Checksums ffp , flac-md5
Disc Counts 0 / 0
Media Size
Date Circulated
Date Added
05/08/2018
05/08/2018
Source Summary flac16; Recording Info: Master UltraMatrix PCM > PCM; Transfer Info: PCM (Sony SL-10)> Sony PCM-601ESD > Behringer Ultramatch Pro > Tascam DA-3000 (wav 16-bit/44.1k)> Adobe Audition 3.0 > TLH flac16 
  Archive
Source Information - Download Text | Download Zip
Grateful Dead
Frost Amphitheatre
Stanford University
Palo Alto, CA
Saturday May 2nd, 1987

Recording Info:
Master UltraMatrix PCM  > PCM

Transfer Info:
PCM (Sony SL-10)> Sony PCM-601ESD > Behringer Ultramatch Pro > Tascam DA-3000 (wav 16-bit/44.1k)> Adobe Audition 3.0 > TLH flac16

Notes:
- Thanks to Tim Dalton for the source PCM
- Thanks to Charlie Miller for the transfer and coordinating this effort
- PA/mix issues during "Hell In A Bucket"
- Heavy on the ambient mics

Mastered by Scott Clugston
May 8, 2018

Set One:
t01 - Tuning
t02 - Hell In A Bucket
t03 - West L.A. Fadeaway
t04 - Beat It On Down The Line
t05 - Stagger Lee
t06 - Little Red Rooster
t07 - Dire Wolf >
t08 - Far From Me
t09 - Jack Straw >
t10 - When Push Comes To Shove
t11 - One More Saturday Night

Set Two:
t12 - Tuning
t13 - China Cat Sunflower >
t14 - I Know You Rider
t15 - Playin' In The Band >
t16 - Terrapin Station >
t17 - Drums >
t18 - Space >
t19 - Truckin' >
t20 - Morning Dew >
t21 - Around & Around >
t22 - Turn On Your Lovelight
t23 - Encore Break
t24 - Black Muddy River



    length     expanded size    cdr  WAVE problems  fmt   ratio  filename
     3:52.06       40938956 B   ---   --   ---xx   flac  0.4025  gd87-05-02 t01 Tuning.flac
     6:03.58       64169660 B   ---   --   ---xx   flac  0.5796  gd87-05-02 t02 Hell In A Bucket.flac
     9:26.05       99854204 B   ---   --   ---xx   flac  0.5312  gd87-05-02 t03 West LA Fadeaway.flac
     3:14.53       34346300 B   ---   --   ---xx   flac  0.6336  gd87-05-02 t04 Beat It On Down The Line.flac
     6:29.17       68659628 B   ---   --   ---xx   flac  0.5612  gd87-05-02 t05 Stagger Lee.flac
    10:47.41      114227276 B   ---   --   ---xx   flac  0.5621  gd87-05-02 t06 Little Red Rooster.flac
     3:20.02       35284748 B   ---   --   ---xx   flac  0.5937  gd87-05-02 t07 Dire Wolf.flac
     5:40.18       60018380 B   ---   --   ---xx   flac  0.5508  gd87-05-02 t08 Far From Me.flac
     6:32.70       69313484 B   ---   --   ---xx   flac  0.6028  gd87-05-02 t09 Jack Straw.flac
     6:09.74       65265692 B   ---   --   ---xx   flac  0.5562  gd87-05-02 t10 When Push Comes To Shove.flac
     5:05.26       53863196 B   ---   --   ---xx   flac  0.6237  gd87-05-02 t11 One More Saturday Night.flac
     1:20.57       14246108 B   ---   --   ---xx   flac  0.4077  gd87-05-02 t12 Tuning.flac
     6:27.30       68337404 B   ---   --   ---xx   flac  0.6095  gd87-05-02 t13 China Cat Sunflower.flac
     7:11.68       76188380 B   ---   --   ---xx   flac  0.5705  gd87-05-02 t14 I Know You Rider.flac
     8:01.17       84888428 B   ---   --   ---xx   flac  0.6076  gd87-05-02 t15 Playin' In The Band.flac
    11:40.20      123527084 B   ---   --   ---xx   flac  0.5809  gd87-05-02 t16 Terrapin Station.flac
    10:23.40      109991324 B   ---   --   ---xx   flac  0.4744  gd87-05-02 t17 Drums.flac
     7:53.52       83559548 B   ---   --   ---xx   flac  0.4439  gd87-05-02 t18 Space.flac
     6:57.38       73648220 B   ---   --   ---xx   flac  0.6413  gd87-05-02 t19 Truckin'.flac
    11:14.04      118903052 B   ---   --   ---xx   flac  0.5589  gd87-05-02 t20 Morning Dew.flac
     3:43.36       39421916 B   ---   --   ---xx   flac  0.6210  gd87-05-02 t21 Around & Around.flac
     5:50.28       61805900 B   ---   --   ---xx   flac  0.6379  gd87-05-02 t22 Turn On Your Lovelight.flac
     2:47.71       29625836 B   ---   --   ---xx   flac  0.5582  gd87-05-02 t23 Encore Break.flac
     6:48.25       72030044 B   ---   --   ---xx   flac  0.5623  gd87-05-02 t24 Black Muddy River.flac
   157:02.31     1662114768 B                            0.5626  (24 files)


Show Checksums
ffp
gd87-05-02 t01 Tuning.flac:716e6096a6b8c27855597828314c3ea6
gd87-05-02 t02 Hell In A Bucket.flac:c65fd97635dc415b39ec893530b643fe
gd87-05-02 t03 West LA Fadeaway.flac:be1c49e922ced18bfeddec2440f9dd18
gd87-05-02 t04 Beat It On Down The Line.flac:cffb0ca1931480d4af8c853834a83ec9
gd87-05-02 t05 Stagger Lee.flac:1bd309d58cf549ca3a6b484d0e3324db
gd87-05-02 t06 Little Red Rooster.flac:4e47328b5c28600fa1d05b22449c45f9
gd87-05-02 t07 Dire Wolf.flac:048a314a30b9bfc48a65aacf752e5961
gd87-05-02 t08 Far From Me.flac:4e9da99ee2701825226b04915c1017dd
gd87-05-02 t09 Jack Straw.flac:6024bd2cc4afb50079d517a4fdb1877e
gd87-05-02 t10 When Push Comes To Shove.flac:14a5358cf989b17f21de3c6353510691
gd87-05-02 t11 One More Saturday Night.flac:4592e270983512c830465c8a2b2aa63b
gd87-05-02 t12 Tuning.flac:5f51af4d218a832652bed7587c3a9d45
gd87-05-02 t13 China Cat Sunflower.flac:42961adfb0506990f6db8973131c1e47
gd87-05-02 t14 I Know You Rider.flac:a1b9da87dd15bc21b0b8ebba80ccd5e8
gd87-05-02 t15 Playin' In The Band.flac:a49dab632c8568edc2bc8574434f31d1
gd87-05-02 t16 Terrapin Station.flac:7a5d42f3e25f2323016781e8cb328adc
gd87-05-02 t17 Drums.flac:2ccdff38d875b805cb81a9fb743d30b2
gd87-05-02 t18 Space.flac:eedf8e9acb4b3398f9cf990d2613d085
gd87-05-02 t19 Truckin'.flac:52e5324e84c2c3900b53ba57b00454dd
gd87-05-02 t20 Morning Dew.flac:2180684ce2f3f4d393ad3e0705e0e666
gd87-05-02 t21 Around & Around.flac:ea15ccacab8d6a456dc578f50e4143de
gd87-05-02 t22 Turn On Your Lovelight.flac:16b5c8ea5720ec771eeb56e54c194e18
gd87-05-02 t23 Encore Break.flac:c083f60ac42525e6014ef240e7ce881d
gd87-05-02 t24 Black Muddy River.flac:a7a5c6d1050b460cc47f280963cedf06
flac-md5
f334425b6da9c668b0559c33b44edda3 *gd87-05-02 t01 Tuning.flac
917a06852f2ecf4d1b994bc54d25fbae *gd87-05-02 t02 Hell In A Bucket.flac
2620764c972b5ccfd405893ac0dece3f *gd87-05-02 t03 West LA Fadeaway.flac
059b158bed15c2668847be03d349edaf *gd87-05-02 t04 Beat It On Down The Line.flac
e9b304a382c89e2e2ff7c47fa5b7f00c *gd87-05-02 t05 Stagger Lee.flac
f795b542b8bed79bf86efa91756b4da3 *gd87-05-02 t06 Little Red Rooster.flac
a8613181367aa71651eff595a2ef9b99 *gd87-05-02 t07 Dire Wolf.flac
02b2bb33fdc4a9f8100c6b123680910e *gd87-05-02 t08 Far From Me.flac
fbeb3bdfc03303aae439f82ee6465cb0 *gd87-05-02 t09 Jack Straw.flac
290dd0638f1041d2f291f92b6166afe6 *gd87-05-02 t10 When Push Comes To Shove.flac
2adb26120f174718aec2bb58f49471e6 *gd87-05-02 t11 One More Saturday Night.flac
142cb59cae3dff19dc2a4ea218292cc6 *gd87-05-02 t12 Tuning.flac
cc74ea315a7176aa6a68b5a1cf9f3439 *gd87-05-02 t13 China Cat Sunflower.flac
a9365c6214f1b3c1a4dc32e40aa7601e *gd87-05-02 t14 I Know You Rider.flac
7a7cca8123588cf715ba0451541f0fc8 *gd87-05-02 t15 Playin' In The Band.flac
8d004a5961e3707f994ec29e30158859 *gd87-05-02 t16 Terrapin Station.flac
20bfa90c1c5416e19cf73d9bd384aa9c *gd87-05-02 t17 Drums.flac
497c3db0b9a960a1d9b9ef89195f5aad *gd87-05-02 t18 Space.flac
840bc6c06f39d54fef78644ad0353670 *gd87-05-02 t19 Truckin'.flac
70c856a7569338277f956d8a56e3249c *gd87-05-02 t20 Morning Dew.flac
6c3b52c177b9964085ec1072e88a31ff *gd87-05-02 t21 Around & Around.flac
6ba3abb796bd56a7d59275278cb58201 *gd87-05-02 t22 Turn On Your Lovelight.flac
6a5bf4f96b597723fd9b046e1ce91538 *gd87-05-02 t23 Encore Break.flac
ddac112246f54548c7a96c5e4492b956 *gd87-05-02 t24 Black Muddy River.flac

Comments
Add Comment
Other Sources (comments)
SBD > MC > DAT > EAC > SHN;... (0) Source: FOB 10th Row Sony... (0) flac16; Recording... (0) flac16; Source: FOB... (0) flac16; Master... (0)
Date User Comment