Browse Collections Artists Sources   Search Dates

Add Show    List Management    Help


Grateful Dead 03/17/88
Henry J. Kaiser Convention Center, Oakland, CA
Comments Add Comment    Source Collectors    Add to Collection    Add to Want List    History
Source # 141919 Other Sources
Entered by Matt Vernon
Checksums ffp , flac-md5
Disc Counts 0 / 0
Media Size
Date Circulated
Date Added
05/09/2018
05/09/2018
Source Summary flac24; Recording Info: UltraMatrix SBD > Cassette Master (TDK MA-R90); Transfer Info: Cassette Master (Nakamichi CR-7A) > Tascam DA-3000 (DSF 1-bit/5.6 MHz) > KORG AudioGate 4 > Samplitude Pro X3 Suite > FLAC/24; All Transfers and Mastering By Charlie Miller 
  Archive
Source Information - Download Text | Download Zip
Grateful Dead - March 17, 1988
Henry J. Kaiser Convention Center - Oakland, CA

Recording Info:
UltraMatrix SBD > Cassette Master (TDK MA-R90)

Transfer Info:
Cassette Master (Nakamichi CR-7A) > Tascam DA-3000 (DSF 1-bit/5.6 MHz) >
KORG AudioGate 4 > Samplitude Pro X3 Suite > FLAC/24
(1 Disc FLAC)

All Transfers and Mastering By Charlie Miller
[email protected]
May 8, 2018

Notes:
-- Drums with Hamza El-Din
-- I used a PCM UltraMatrix SBD to patch the tape flips

Set 1:
01 - Tuning
02 - Hell In A Bucket >
03 - Sugaree
04 - New Minglewood Blues
05 - Ramble On Rose
06 - Stuck Inside Of Mobile With The Memphis Blues Again
07 - Row Jimmy
08 - Let It Grow

Set 2:
09 - Tuning
10 - China Cat Sunflower >
11 - I Know You Rider
12 - Estimated Prophet >
13 - Eyes Of The World >
14 - Drums >
15 - Space >
16 - Goin' Down The Road Feeling Bad >
17 - I Need A Miracle >
18 - Dear Mr. Fantasy >
19 - Hey Jude

Encore:
20 - Encore Break
21 - Black Muddy River


SHNTOOL OUTPUT:
    length     expanded size    cdr  WAVE problems  fmt   ratio  filename
     2:08.621      74086016 B   cxx   --   ---xx   flac  0.6472  01 Tuning.flac
     5:54.531     204209654 B   cxx   --   ---xx   flac  0.6841  02 Hell In A Bucket.flac
     9:51.277     340575344 B   cxx   --   ---xx   flac  0.6766  03 Sugaree.flac
     8:42.267     300825674 B   cxx   --   ---xx   flac  0.6725  04 New Minglewood Blues.flac
     7:57.185     274858412 B   cxx   --   ---xx   flac  0.6656  05 Ramble On Rose.flac
    10:21.018     357706250 B   cxx   --   ---xx   flac  0.6507  06 Stuck Inside Of Mobile With The Memphis Blues Again.flac
     8:19.777     287871752 B   cxx   --   ---xx   flac  0.6743  07 Row Jimmy.flac
    12:07.343     418949642 B   cxx   --   ---xx   flac  0.6841  08 Let It Grow.flac
     2:00.738      69544946 B   cxx   --   ---xx   flac  0.6456  09 Tuning.flac
     5:25.669     187585352 B   cxx   --   ---xx   flac  0.6949  10 China Cat Sunflower.flac
     5:41.040     196439210 B   cxx   --   ---xx   flac  0.6933  11 I Know You Rider.flac
    10:47.963     373226960 B   cxx   --   ---xx   flac  0.6814  12 Estimated Prophet.flac
     8:50.754     305714174 B   cxx   --   ---xx   flac  0.6920  13 Eyes Of The World.flac
    13:15.559     458241800 B   cxx   --   ---xx   flac  0.6432  14 Drums.flac
     7:01.544     242809274 B   cxx   --   ---xx   flac  0.6712  15 Space.flac
     5:15.041     181463678 B   cxx   --   ---xx   flac  0.6952  16 Goin' Down The Road Feeling Bad.flac
     3:17.577     113804486 B   cxx   --   ---xx   flac  0.6925  17 I Need A Miracle.flac
     4:17.853     148523624 B   cxx   --   ---xx   flac  0.6886  18 Dear Mr Fantasy.flac
     2:23.757      82804202 B   cxx   --   ---xx   flac  0.6948  19 Hey Jude.flac
     3:27.979     119795954 B   cxx   --   ---xx   flac  0.6585  20 Encore Break.flac
     6:44.139     232784288 B   cxx   --   ---xx   flac  0.6768  21 Black Muddy River.flac
   143:51.632    4971820692 B                            0.6744  (21 files)


Show Checksums
ffp
01 Tuning.flac:9cb95e5b00188a1ac66ce6af24d3ebb9
02 Hell In A Bucket.flac:708a29ae8d537f5a704021dd90a2c827
03 Sugaree.flac:e250372c836202693fa24078461dac08
04 New Minglewood Blues.flac:f448ecf88f8dfab64263abf1739a61f0
05 Ramble On Rose.flac:a14e3420fae7f76faf10099b5deca910
06 Stuck Inside Of Mobile With The Memphis Blues Again.flac:0730bde928fbdfacef9de22573d23eff
07 Row Jimmy.flac:9ab4d3770c12ec6040f9aad296dd8f60
08 Let It Grow.flac:719768bb48f3d1bb43f94535c88f282e
09 Tuning.flac:6e94dac5a00f991c8870e5b633fcccdf
10 China Cat Sunflower.flac:00c0c94ffb2dac8fd697f5cc5572f2a1
11 I Know You Rider.flac:abb34bcef922958ec27577701a3d8bd9
12 Estimated Prophet.flac:348b64c67606cb97d49c32ea249b4a53
13 Eyes Of The World.flac:0c63c6c190dcb421d1621508fa9db2bf
14 Drums.flac:1a3fa87794a3213a6dda4aa48e358015
15 Space.flac:397b27fa84848f80fc44ac376fe9f77d
16 Goin' Down The Road Feeling Bad.flac:f1d10eb6653602c54fb52d0a70ae61a3
17 I Need A Miracle.flac:3817666b6bbd8419c0d8eea55fd1331c
18 Dear Mr Fantasy.flac:33bd74f6e40bfc6249bd97f2b7d82b22
19 Hey Jude.flac:2274dce0c589c2a56e8e54e5ec805d97
20 Encore Break.flac:68431c8d0c5ea98dea588aa4d15daca0
21 Black Muddy River.flac:deee83d897e9fd4e8e5d8c36cb938b7b
flac-md5
9a021b8ed8bd3a106ad5475f5cdd03e6 *01 Tuning.flac
13d3eebb353d6068ecd58df984e0498a *02 Hell In A Bucket.flac
abae6f7a94b04c6b77c7a8346e7c2e3a *03 Sugaree.flac
c2f69dd267087dbe9fed89cf66b09871 *04 New Minglewood Blues.flac
6d2351e4e68988b8c4de317cadb7f70d *05 Ramble On Rose.flac
1d8d74170dc089bb5f7aaa576be50c99 *06 Stuck Inside Of Mobile With The Memphis Blues Again.flac
79b6f51c0f903ce57cc514f7106a7c15 *07 Row Jimmy.flac
f8220a598356de4aa8fffbee89b441b4 *08 Let It Grow.flac
26bf9f5675347d1c6198f7ff5d1634bf *09 Tuning.flac
7287c54b36b32cf538530317ff152833 *10 China Cat Sunflower.flac
f5cd118d4846725ec7af70d17ad0f954 *11 I Know You Rider.flac
3b10377f8dd1af1f7d2fa06be78f8ad5 *12 Estimated Prophet.flac
f7e8af685c3ac907fc810c1b00fb8a4b *13 Eyes Of The World.flac
480a31845a5850d31bfa53e45f478684 *14 Drums.flac
6754e03b115eb79f779b3b1b9ad597d4 *15 Space.flac
dcb9594e009c87504e3747e44f855837 *16 Goin' Down The Road Feeling Bad.flac
cd05e3c2830f29d565788fecdbbe46e6 *17 I Need A Miracle.flac
b044782a0fa8eba26e1e139ffce6c889 *18 Dear Mr Fantasy.flac
0cbe66b8d875caa12dde009ecac03053 *19 Hey Jude.flac
35154266318a2d349e92d1e2821f4d81 *20 Encore Break.flac
0efd19ea1c44d9749bf0a1dacd0043c2 *21 Black Muddy River.flac

Comments
Add Comment
Other Sources (comments)
Master (SBD)... (0) Soundboard->DAT... (0) flac16; Recording... (1) flac16; AUD: Unknown... (0) flac16; Soundboard... (0) flac16; Source Info:... (0) flac16; Recording... (0)
Date User Comment