Browse Collections Artists Sources   Search Dates

Add Show    List Management    Help


Garcia 05/23/91
Warfield Theater, San Francisco, CA
Comments Add Comment    Source Collectors    Add to Collection    Add to Want List    History
Source # 141932 Other Sources
Entered by Joe Jupille
Checksums jg1991-05-23.ffp , jg1991-05-23.shntool_len.txt
Disc Counts 0 / 0
Media Size Compressed: 747 MB (783286272 bytes)
Date Circulated
Date Added
05/10/2018
05/10/2018
Source Summary KGB; flac1648; Schoeps MK-4 capsules > Sony TCD-D3, transferred By Stuccoholmes 2018 
Source Information - Download Text | Download Zip
Jerry Garcia Band
Thursday, May 23, 1991
Warfield Theater
San Francisco, CA

Recording:
Schoeps MK-4 capsules > Sony TCD-D3 with custom cables and supply > Sony DT-90 tapes

Location:
Set 1, mics on shoulders, 2nd level center, sweet spot
Set 2, mics on shoulders, 3 feet from drink rail, center

DAT Archived and Transferred By Stuccoholmes 2018
Edited and Mastered by Jamie Waddell
Track, Flac and Pack by John Wenzel
16bit 48kHz FLAC

-Set 1-
01 crowd
02 Cats Under The Starts
03 stage equipment repair
04 Shining Star
05 Struggling Man
06 Run for the Roses
07 Lazy Bones
08 Money Honey
09 Deal

-Set 2-
10 See What Love Can Do
11 I Shall Be Released
12 Think
13 Lay Down Sally
14 Stoned Me
15 Don't Let Go
16 Somebody to Love

Notes: Taper comments after See What Love Can Do he "missed the first note or two".

originally shared at www.shnflac.net



Show Checksums
jg1991-05-23.ffp
01 - crowd.flac:2919deb2b39f8a25cfdf1b5fe19c02c4
02 - Cats Under The Stars.flac:182f8103617892a51a833e9ddcaaed03
03 - stage equipment repair.flac:e8a8324ed76324c844c35adbccf4427b
04 - Shining Star.flac:17ba4e60024a3720b63886ecaef74f06
05 - Struggling Man.flac:0d7cae1c3b8a0feed8f3ff0cb467448a
06 - Run For The Roses.flac:a8bbe4a7a1b7873bf204ad5c188c08f8
07 - Lazy Bones.flac:03820e3517e71b1334aa7694971e11a4
08 - Money Honey.flac:c89621427cc09fbd898cfc5621bb32d1
09 - Deal.flac:48234e7d5d22717043a4616ffca727c4
10 - See What Love Can Do.flac:4641d3adab1d5f28563e3698e2ec252a
11 - I Shall Be Released.flac:8af9f25390e8817ec1a5ec6c10d3d35d
12 - Think.flac:3541bb007308a671f6d79ea9faf7d202
13 - Lay Down Sally.flac:0393caf63ff3e3672a1ab03d3fbbccd5
14 - And It Stoned Me.flac:3c421133710bcb756eafc43d04bcf032
15 - Don't Let Go.flac:3d7605b5b62c4dd589c4fff1e7612e5a
16 - Somebody To Love.flac:563ba9978c3a962cdf8db75b00423f93
jg1991-05-23.shntool_len.txt
length expanded size cdr WAVE problems fmt ratio filename
1:04.133 12313644 B cxx -- ---xx flac 0.4515 01 - crowd.flac
9:53.160 113886764 B cxx -- ---xx flac 0.5263 02 - Cats Under The Stars.flac
4:28.133 51481644 B cxx -- ---xx flac 0.3877 03 - stage equipment repair.flac
10:06.440 116436524 B cxx -- ---xx flac 0.4800 04 - Shining Star.flac
9:18.400 107212844 B cxx -- ---xx flac 0.5134 05 - Struggling Man.flac
5:54.400 68044844 B cxx -- ---xx flac 0.5196 06 - Run For The Roses.flac
9:18.053 107146284 B cxx -- ---xx flac 0.4319 07 - Lazy Bones.flac
6:58.560 80363564 B cxx -- ---xx flac 0.5172 08 - Money Honey.flac
8:54.280 102581804 B cxx -- ---xx flac 0.5416 09 - Deal.flac
7:54.147 91036204 B cxx -- ---xx flac 0.4946 10 - See What Love Can Do.flac
9:55.347 114306604 B cxx -- ---xx flac 0.4358 11 - I Shall Be Released.flac
6:46.133 77977644 B cxx -- ---xx flac 0.5261 12 - Think.flac
11:01.413 126991404 B cxx -- ---xx flac 0.4684 13 - Lay Down Sally.flac
8:00.240 92206124 B cxx -- ---xx flac 0.4640 14 - And It Stoned Me.flac
18:18.453 210903084 B cxx -- ---xx flac 0.4797 15 - Don't Let Go.flac
11:14.467 129497644 B cxx -- ---xx flac 0.5383 16 - Somebody To Love.flac
139:05.760 1602386624 B 0.4894 (16 files)

Comments
Add Comment
Other Sources (comments)
Jerry Garcia Band: (FOB)... (0)
Date User Comment