Browse Collections Artists Sources   Search Dates

Add Show    List Management    Help


Grateful Dead 01/29/87
San Francisco Civic Auditorium, San Francisco, CA
Comments Add Comment    Source Collectors    Add to Collection    Add to Want List    History
Source # 141938 Other Sources
Entered by Matt Vernon
Checksums ffp , flac-md5
Disc Counts 0 / 0
Media Size
Date Circulated
Date Added
05/11/2018
05/11/2018
Source Summary flac16; Source Info: Oade's Master (FOB) Audience PCM; Schoeps CMC4/MK41 mics > Oade M118 > Modified Sony F-1 PCM; Transfer Info: Master Oade PCM (unknown deck/hardware/software) > hard disk > Adobe Audition 3.0 > TLH flac16 
  Archive
Source Information - Download Text | Download Zip
Grateful Dead
Civic Center
San Francisco, CA
Thursday  January 29th, 1987

Source Info:
Oade's Master (FOB) Audience PCM; Schoeps CMC4/MK41 mics > Oade M118 > Modified Sony F-1 PCM

Transfer Info:
Master Oade PCM (unknown deck/hardware/software) > hard disk > Adobe Audition 3.0 > TLH flac16

Notes:
- Thanks to the Oade brothers and crew for their master recording(s), as well as a proper transfer to hard disk
- Thanks to Blake Jacobs for the hard disk
- Thanks to Charlie Miller for coordinating this effort
- Thanks to the Oade brothers for the Schoeps CMC4/MK41 + CMC4/MK4 source which supplies a 3:11 patch at the end of "Sugaree" and beginning of "El Paso"
- Thanks to Bill Koucky and Chris Ladner for the shnid79467 Nakamichi 100 source which supplies a 0:03 patch in "Looks Like Rain"
- No "Space", "I Need A Miracle" out of "Drums"
- Awesome capture, imo

Mastered by Scott Clugston
May 10, 2018

Set One:
t01 - Funiculi Funicula/Tico Tico Tuning
t02 - Hell In A Bucket >
t03 - Sugaree
t04 - El Paso
t05 - Loser
t06 - Little Red Rooster
t07 - Brown Eyed Women
t08 - Cassidy >
t09 - Don't Ease Me In

Set Two:
t10 - Crowd
t11 - Scarlet Begonias >
t12 - Fire On The Mountain
t13 - Looks Like Rain >
t14 - Terrapin Station >
t15 - Drums >
t16 - I Need A Miracle >
t17 - Stella Blue >
t18 - Goin' Down The Road Feeling Bad >
t19 - Johnny B. Goode
t20 - Encore Break
t21 - It's All Over Now, Baby Blue



    length     expanded size    cdr  WAVE problems  fmt   ratio  filename
     6:30.63       68944220 B   ---   --   ---xx   flac  0.4602  gd87-01-29 t01 Finiculi Finicula_Tico Tico Tuning.flac
     6:15.47       66260588 B   ---   --   ---xx   flac  0.6016  gd87-01-29 t02 Hell In A Bucket.flac
     9:33.43      101178380 B   ---   --   ---xx   flac  0.5961  gd87-01-29 t03 Sugaree.flac
     5:49.02       61568348 B   ---   --   ---xx   flac  0.5465  gd87-01-29 t04 El Paso.flac
     7:50.50       83025644 B   ---   --   ---xx   flac  0.5857  gd87-01-29 t05 Loser.flac
    10:53.50      115306844 B   ---   --   ---xx   flac  0.5646  gd87-01-29 t06 Little Red Rooster.flac
     6:18.15       66714524 B   ---   --   ---xx   flac  0.5770  gd87-01-29 t07 Brown Eyed Women.flac
     5:36.42       59369228 B   ---   --   ---xx   flac  0.5866  gd87-01-29 t08 Cassidy.flac
     3:39.08       38650460 B   ---   --   ---xx   flac  0.6195  gd87-01-29 t09 Don't Ease Me In.flac
     0:53.58        9485660 B   ---   --   ---xx   flac  0.4792  gd87-01-29 t10 Crowd.flac
     8:06.62       85876268 B   ---   --   ---xx   flac  0.5897  gd87-01-29 t11 Scarlet Begonias.flac
    10:38.52      112665548 B   ---   --   ---xx   flac  0.6023  gd87-01-29 t12 Fire On The Mountain.flac
     8:15.50       87435644 B   ---   --   ---xx   flac  0.5788  gd87-01-29 t13 Looks Like Rain.flac
    12:05.38      127979420 B   ---   --   ---xx   flac  0.5761  gd87-01-29 t14 Terrapin Station.flac
     8:31.53       90265100 B   ---   --   ---xx   flac  0.6473  gd87-01-29 t15 Drums.flac
     4:05.32       43293308 B   ---   --   ---xx   flac  0.6048  gd87-01-29 t16 I Need A Miracle.flac
     7:39.55       81097004 B   ---   --   ---xx   flac  0.4997  gd87-01-29 t17 Stella Blue.flac
     5:59.09       63348812 B   ---   --   ---xx   flac  0.6224  gd87-01-29 t18 Goin' Down The Road Feeling Bad.flac
     5:17.05       55930604 B   ---   --   ---xx   flac  0.6288  gd87-01-29 t19 Johnny B. Goode.flac
     1:06.73       11814140 B   ---   --   ---xx   flac  0.4551  gd87-01-29 t20 Encore Break.flac
     9:12.51       97492796 B   ---   --   ---xx   flac  0.5434  gd87-01-29 t21 It's All Over Now, Baby Blue.flac
   144:20.33     1527702540 B                            0.5773  (21 files)


Show Checksums
ffp
gd87-01-29 t01 Finiculi Finicula_Tico Tico Tuning.flac:808ac4a7dfb271b42af937a754c654a6
gd87-01-29 t02 Hell In A Bucket.flac:c0a951914f070ad5f993fa8fba743f27
gd87-01-29 t03 Sugaree.flac:94122f49c1c7021afd0a52baa3784ffc
gd87-01-29 t04 El Paso.flac:3768b16852d56947a6a097ff1285c878
gd87-01-29 t05 Loser.flac:2244bfb5f1cb2d86bbe5fb31d5cf501e
gd87-01-29 t06 Little Red Rooster.flac:20ff83093451cb3741ae2c9b9d494d02
gd87-01-29 t07 Brown Eyed Women.flac:e76746d1202b8496d56f6d2e9ceb16d0
gd87-01-29 t08 Cassidy.flac:6b165dde4294bcd52c0a0f0ea8cce945
gd87-01-29 t09 Don't Ease Me In.flac:3ebbaf6bb0e593a70b82231873d78628
gd87-01-29 t10 Crowd.flac:e2c76fd5be881514df6b648a184d58fe
gd87-01-29 t11 Scarlet Begonias.flac:c68e36ed73ad4839b9b3f70aa17516ff
gd87-01-29 t12 Fire On The Mountain.flac:a21462f1e469a51e1d35634ea9c30c6c
gd87-01-29 t13 Looks Like Rain.flac:bc271b7a3651796a8eb6edb497281162
gd87-01-29 t14 Terrapin Station.flac:3482e785afc7b842c6917baad6aa49c4
gd87-01-29 t15 Drums.flac:c430548ffcbcff6abb5cf05fd5033528
gd87-01-29 t16 I Need A Miracle.flac:b659b55a9e9672b37679714b3f11bbc2
gd87-01-29 t17 Stella Blue.flac:612f2addb1ab8898e954fff6a6b91328
gd87-01-29 t18 Goin' Down The Road Feeling Bad.flac:ca128e5f8c0ed499305525f828654fbe
gd87-01-29 t19 Johnny B. Goode.flac:5a7b90a062b9c4d05aceda2bc4f42d4d
gd87-01-29 t20 Encore Break.flac:2f63a7532aee68f005b1fc2955201478
gd87-01-29 t21 It's All Over Now, Baby Blue.flac:b01d509c1c4d5976bf03e2249e68b6a2
flac-md5
948137fdb84e96bf847bc3c0d645bbe3 *gd87-01-29 t01 Finiculi Finicula_Tico Tico Tuning.flac
e3472111dde42e5d399b3acb1dec8e0c *gd87-01-29 t02 Hell In A Bucket.flac
eabd2adcb243ef25ab128527325c7759 *gd87-01-29 t03 Sugaree.flac
21a30d334034fa63456a7cb9f9ed56a6 *gd87-01-29 t04 El Paso.flac
1a9f6d23dae11d854083cfaad7dd310f *gd87-01-29 t05 Loser.flac
2ffa5f3f2c0f295c49fb27deee844cf0 *gd87-01-29 t06 Little Red Rooster.flac
c6ca8a4452ff24b1139cf96bdd7a12ba *gd87-01-29 t07 Brown Eyed Women.flac
b927e06055acc031f6dc3b82d5f68e22 *gd87-01-29 t08 Cassidy.flac
ede2ded566d2815595abeec3f5d0cb7e *gd87-01-29 t09 Don't Ease Me In.flac
5ebe5d6b3433e6640ee26a6644257cd2 *gd87-01-29 t10 Crowd.flac
b3507603f1ab0a0653846da78036c1a3 *gd87-01-29 t11 Scarlet Begonias.flac
37e79c919f90baa11f07b9fcd98eddc8 *gd87-01-29 t12 Fire On The Mountain.flac
2ff58eb2f2ad5a85e1d69080e2c0bedd *gd87-01-29 t13 Looks Like Rain.flac
a8b76dde17ea8c9afa5a3506ce6e2ebd *gd87-01-29 t14 Terrapin Station.flac
f885fb2c374083f34da93542f482655d *gd87-01-29 t15 Drums.flac
7aee8fd8a5e05371451288d1a13784dd *gd87-01-29 t16 I Need A Miracle.flac
75842a8c3f28c9464fba806dff28c4c3 *gd87-01-29 t17 Stella Blue.flac
b4b15cdd5ad0a130c3fb4a9d25ed4fa9 *gd87-01-29 t18 Goin' Down The Road Feeling Bad.flac
65b81ea5448743bfa8983ab8153940f9 *gd87-01-29 t19 Johnny B. Goode.flac
d8b08a59117e6ad2e64e4b564ec043b8 *gd87-01-29 t20 Encore Break.flac
4461b18178916c4759be650483c1f1ad *gd87-01-29 t21 It's All Over Now, Baby Blue.flac

Comments
Add Comment
Other Sources (comments)
Healey ultramix: PCM ->... (2) flac16; Source:... (0) flac16; Recording... (0) flac16; Source:... (0) flac24; Recording... (0) flac16; Recording... (0) flac16; Matrix 2... (0) DTS-Audio-CD 5.1... (0) flac16/48kHz; 5.1... (0)
Date User Comment