Browse Collections Artists Sources   Search Dates

Add Show    List Management    Help


Allman Brothers Band 03/03/92
Orpheum Theater, Boston, MA
Comments Add Comment    Source Collectors    Add to Collection    Add to Want List    History
Source # 141942 Other Sources
Entered by
Checksums ffp , flac-md5
Disc Counts 0 / 0
Media Size Compressed: 1.16 GB (1241578375 bytes)
Uncompressed: 2 GB (2142676928 bytes)
Date Circulated
Date Added
05/11/2018
05/12/2018
Source Summary flac16 48khz Recording Info: Custom Mix From Mobile Recording Truck > Dat Master (Panasonic SV-3700/48k)
Transfer Info: Dat Master (Sony PCM-R500) > Sound Devices 744T > Samplitude Pro X3 Suite > FLAC/48k
(2 Discs Audio / 1 DVD FLAC) Mixed and Recorded by Don Pearson Transferred and Mastered by Charlie Miller 
Source Information - Download Text | Download Zip
Allman Brothers Band - March 3, 1992
Orpheum Theater - Boston, MA

Recording Info:
Custom Mix From Mobile Recording Truck > Dat Master (Panasonic SV-3700/48k)

Transfer Info:
Dat Master (Sony PCM-R500) > Sound Devices 744T > Samplitude Pro X3 Suite > FLAC/48k
(2 Discs Audio / 1 DVD FLAC)

Mixed and Recorded by Don Pearson
Transferred and Mastered by Charlie Miller
[email protected]
May 9, 2018

Setlist:
01 - Statesboro Blues
02 - End Of The Line
03 - Blue Sky
04 - Nobody Knows
05 - Low Down Dirty Mean
06 - Seven Turns
07 - Midnight Rider
08 - Come On In My Kitchen
09 - Midnight Blues
10 - Melissa
11 - Goin' Down the Road Feeling Bad
12 - Hoochie Coochie Man
13 - Get On With Your Life
14 - In Memory of Elizabeth Reed
15 - Revival

Encore:
16 - Encore Break
17 - One Way Out
18 - Southbound
19 - Dreams
20 - Whipping Post


SHNTOOL OUTPUT:
    length     expanded size    cdr  WAVE problems  fmt   ratio  filename
     7:57.609      91701052 B   cxx   --   ---xx   flac  0.6025  01 Statesboro Blues.flac
     6:22.221      73386384 B   cxx   --   ---xx   flac  0.5863  02 End Of The Line.flac
     8:47.672     101313024 B   cxx   --   ---xx   flac  0.6097  03 Blue Sky.flac
    17:03.567     196524904 B   cxx   --   ---xx   flac  0.6043  04 Nobody Knows.flac
     8:30.367      97990524 B   cxx   --   ---xx   flac  0.5685  05 Low Down Dirty Mean.flac
     4:36.095      53010312 B   cxx   --   ---xx   flac  0.5353  06 Seven Turns.flac
     4:21.170      50144708 B   cxx   --   ---xx   flac  0.5324  07 Midnight Rider.flac
     6:05.043      70088348 B   cxx   --   ---xx   flac  0.5232  08 Come On In My Kitchen.flac
     5:28.575      63086372 B   cxx   --   ---xx   flac  0.5118  09 Midnight Blues.flac
     6:08.577      70766860 B   cxx   --   ---xx   flac  0.5803  10 Melissa.flac
     9:40.660     111486804 B   cxx   --   ---xx   flac  0.5341  11 Goin' Down the Road Feeling Bad.flac
     8:04.233      92972844 B   cxx   --   ---xx   flac  0.5918  12 Hoochie Coochie Man.flac
     7:44.697      89221888 B   cxx   --   ---xx   flac  0.5644  13 Get On With Your Life.flac
    27:05.927     312177956 B   cxx   --   ---xx   flac  0.5955  14 In Memory of Elizabeth Reed.flac
     6:34.253      75696680 B   cxx   --   ---xx   flac  0.6226  15 Revival.flac
     3:51.392      44427360 B   cxx   --   ---xx   flac  0.5235  16 Encore Break.flac
    13:19.539     153511472 B   cxx   --   ---xx   flac  0.5791  17 One Way Out.flac
     8:55.311     102779712 B   cxx   --   ---xx   flac  0.6105  18 Southbound.flac
    11:15.966     129785560 B   cxx   --   ---xx   flac  0.5959  19 Dreams.flac
    14:06.896     162604164 B   cxx   --   ---xx   flac  0.5643  20 Whipping Post.flac
   185:59.771    2142676928 B                            0.5795  (20 files)



Show Checksums
ffp
01 Statesboro Blues.flac:f542595010b53ffe6974fb32c1ba53bf
02 End Of The Line.flac:686db02a42ebe5649fa0603139dfaafd
03 Blue Sky.flac:5a3189bed6ce502850cdb146a3972b79
04 Nobody Knows.flac:a0983ca325b1f395373cf0fbe712997e
05 Low Down Dirty Mean.flac:2b9c0c4bc431c6874678876d2b291bf9
06 Seven Turns.flac:c9341f2d88385ce6ff1c21f8c1bb6ee9
07 Midnight Rider.flac:7235951d1b857652f6c6314a1873bcfd
08 Come On In My Kitchen.flac:80af57a294a80434f51ff1a57f72bfc8
09 Midnight Blues.flac:b9297b69110f9b680a1471df1185b0a7
10 Melissa.flac:cd5ae8c414ea924394e0f44b3fe96c79
11 Goin' Down the Road Feeling Bad.flac:e8f02afeb5e25aa98e9783c0cba99187
12 Hoochie Coochie Man.flac:2464ea0214059052d0dfcddcfbc1870c
13 Get On With Your Life.flac:a97fd9ae6324f41c90903cdd73c1ca16
14 In Memory of Elizabeth Reed.flac:1679158b5663b1ba508abc4d9e71d10e
15 Revival.flac:2b7f605c1f90e7344ed07f3715bbdba6
16 Encore Break.flac:ce5a2834d56ebc6b6c0fe48689100768
17 One Way Out.flac:f7c2c207943c9fd5906aed320375fac4
18 Southbound.flac:4997a8ce779c6ef0fe36fe88527d8fe7
19 Dreams.flac:03e90dffdd5d79b0bf9f074376972585
20 Whipping Post.flac:fe7530ed5818df5c6e0619788801ee97
flac-md5
b11433593fdf5995314b4ac1bd03db3e *01 Statesboro Blues.flac
9850d7a7982bce5be7cbb82c708a7d48 *02 End Of The Line.flac
1b87dcea7db8e5ae0a2a117689e698cd *03 Blue Sky.flac
6ac9e3fbc32111a9e047ce60024c05f7 *04 Nobody Knows.flac
aef0b5c36602403a5cbef6ff127c526f *05 Low Down Dirty Mean.flac
ff8dbce6f64e332f74a615f7530d6157 *06 Seven Turns.flac
41cbb11c2b7e12ea7363d13d01c1506b *07 Midnight Rider.flac
9e85a1994c8f1ecb8b3f6b05c27371a7 *08 Come On In My Kitchen.flac
a40fbeadf8ef83c65ff1788ad8a5720f *09 Midnight Blues.flac
54ec82e566471741d21c9432e877e809 *10 Melissa.flac
bc83f487a5f47073145df5ad05f3e9ee *11 Goin' Down the Road Feeling Bad.flac
ee83e12a5266b485685346f4c6a884e0 *12 Hoochie Coochie Man.flac
3d20af3d4bf19b9df20a4865476d2a0b *13 Get On With Your Life.flac
8d8e73f799deb1d5be371112fe27af2e *14 In Memory of Elizabeth Reed.flac
53cbcdf9faa6f7ef7e50c9ac52639613 *15 Revival.flac
9be1813d17ac947d8fe8d33b0cf26e0c *16 Encore Break.flac
dc4071255ae343c3df5e7d72b17eb760 *17 One Way Out.flac
71111dafe3f8a4c2beefc1fa4e12a09e *18 Southbound.flac
6b80169c96417b4c9a2bca078b81786b *19 Dreams.flac
5108ec72c73ebc6ed3aa8391baaabcce *20 Whipping Post.flac

Comments
Add Comment
Other Sources (comments)
A:DAT (B&K 4011s >... (0) A:DAT (B&K 4011s >... (0)
Date User Comment